Поиск

2016 Roy Budd - In the Groove {JHP} [24-96]

2016 Roy Budd - In the Groove {JHP} [24-96]
Стили:
Дата переиздания диска:
29 ноября 2019
Носитель:
WEB
Формат:
PCM
Тип рипа:
tracks+.cue
Контейнер:
APE (*.ape)
Количество каналов:
2.0
Разрядность/ЧД:
24/96
Битрейт аудио:
lossless
Время звучания:
00:47:52
Наличие сканов:
web
Наличие водяных знаков:
нет
Релизёр (источник):
M0p94ok

Треклист:

01. The Cat  01:55
02. Watermelon Man  02:50
03. Ode to Billy Joe  02:28
04. On Broadway  02:26
05. Sunshine Superman  02:41
06. Go John Go  05:14
07. Unfair to Scarborough  02:53
08. High Heeled Sneakers  04:12
09. Call Me  04:26
10. Norwegian Wood  03:45
11. Couldn't make a Fool  02:26
12. Uptight  03:16
13. Sonny  03:16
14. Detroit City  06:04

Лог проверки качества
foobar2000 1.3.16 / Dynamic Range Meter 1.1.1
log date: 2019-03-25 16:19:09

--------------------------------------------------------------------------------
Analyzed: Roy Budd / In the Groove
--------------------------------------------------------------------------------

DR         Peak         RMS     Duration Track
--------------------------------------------------------------------------------
DR8        0.00 dB    -9.04 dB      1:53 01-The Cat
DR8        0.00 dB    -9.40 dB      2:48 02-Watermelon Man
DR11       0.00 dB   -12.55 dB      2:26 03-Billy Joe
DR9       -0.40 dB   -11.04 dB      2:25 04-On Broadwat
DR10       0.00 dB   -11.72 dB      2:39 05-Sunshine Superman
DR13       0.00 dB   -14.71 dB      5:13 06-Go John Go
DR10       0.00 dB   -12.15 dB      2:52 07-Unfair to Scarborough
DR10       0.00 dB   -11.90 dB      4:10 08-High Helled Sneakers
DR11       0.00 dB   -12.37 dB      4:25 09-Call Me
DR11       0.00 dB   -13.18 dB      3:44 10-Norwegian Wood
DR7       -1.78 dB   -10.29 dB      2:25 11-Couldn't Make a Fool
DR12      -0.02 dB   -13.30 dB      3:14 12-Uptight
DR10      -3.29 dB   -14.40 dB      3:15 13-Sonny
DR12       0.00 dB   -13.28 dB      6:03 14-Detroit City
--------------------------------------------------------------------------------

Number of tracks:  14
Official DR value: DR10

Samplerate:        96000 Hz
Channels:          2
Bits per sample:   24
Bitrate:           2661 kbps
Codec:             FLAC
================================================================================
Приватный:
Нет (DHT включён)
Размер:
934.25 Мб (979,629,149 байт) » файлов: 16
Участники:
5 раздают, 0 качают (5 участников всего)
Внешние участники:
--- [ Обновить ]
No seeders - write personal message to M0p94ok. Нет сидеров - пишите в личку M0p94ok.
13:24
194
Нет комментариев. Ваш будет первым!