Вы используете незарегистрированную версию компонента "Вкладки"!

Поиск

1992 Karen Knowles - Moonglow (2009) {Fonè} [24-88,2]

1992 Karen Knowles - Moonglow (2009) {Fonè} [24-88,2]
Стили:
Издатель (лейбл):
Битрейт аудио:
lossless
Доп. инфо:

Формат записи/Источник записи: [TR24][OF]
Год издания/переиздания диска: 2009
Издатель (лейбл): Fonè Records
Продолжительность: 00:55:02
Наличие сканов в содержимом раздачи: Буклет PDF

Контейнер: FLAC (*.flac)
Тип рипа: tracks
Разрядность: 24/88,2
Количество каналов: 2.0

Источник (релизер): HIGHRESAUDIO

Лог проверки качества
foobar2000 1.4.3 / Dynamic Range Meter 1.1.1
log date: 2020-10-19 19:52:24

--------------------------------------------------------------------------------
Analyzed: Karen Knowles / Moonglow
--------------------------------------------------------------------------------

DR         Peak         RMS     Duration Track
--------------------------------------------------------------------------------
DR12      -2.81 dB   -19.85 dB      3:02 01-Moonglow
DR13      -1.08 dB   -19.52 dB      3:35 02-Espresso
DR13      -3.14 dB   -21.15 dB      4:10 03-There, I've Said It Again
DR14      -6.27 dB   -24.46 dB      3:27 04-All I Want To Do
DR12      -0.92 dB   -16.71 dB      4:02 05-Don't Say
DR13      -1.81 dB   -19.42 dB      4:33 06-Under The Moon
DR13      -0.96 dB   -18.19 dB      3:28 07-What's Taken Your Smile Away?
DR12      -6.62 dB   -23.48 dB      4:09 08-Nature Boy
DR13      -1.03 dB   -19.24 dB      3:39 09-Turn It Upside Down
DR13      -1.32 dB   -18.38 dB      3:33 10-It Goes Like It Goes
DR11      -6.49 dB   -23.85 dB      3:45 11-Every Time We Say Goodbye
DR13      -1.04 dB   -20.35 dB      3:44 12-Art Of Love
DR13      -5.51 dB   -21.50 dB      2:43 13-Dream A Little Dream
DR13      -4.88 dB   -22.49 dB      4:21 14-Every Once In A While
DR12      -6.76 dB   -21.71 dB      2:51 15-Moonglow
--------------------------------------------------------------------------------

Number of tracks:  15
Official DR value: DR13

Samplerate:        88200 Hz
Channels:          2
Bits per sample:   24
Bitrate:           2718 kbps
Codec:             FLAC
================================================================================
Any questions - support@pro-jazz.com. Есть вопросы - support@pro-jazz.com
15:10
229
Нет комментариев. Ваш будет первым!