Поиск

2019 Susan Weinert - Beyond the Rainbow {Toughtone} [24-96]

2019 Susan Weinert - Beyond the Rainbow {Toughtone} [24-96]
Дата записи диска:
4 июля 2018
Место записи:
Bauer Studios, Ludwigsburg, Germany
Дата издания диска:
29 марта 2019
Номер по каталогу:
TTR 2308-2
Носитель:
WEB
Формат:
PCM
Тип рипа:
tracks+.cue
Контейнер:
APE (*.ape)
Количество каналов:
2.0
Разрядность/ЧД:
24/96
Битрейт аудио:
lossless
Время звучания:
00:53:40
Наличие сканов:
web
Страна-производитель диска (релиза):
Germany
Релизёр (источник):
M0p94ok
Лог проверки качества
foobar2000 1.5.5 / Dynamic Range Meter 1.1.1
log date: 2020-11-29 23:01:26

--------------------------------------------------------------------------------
Analyzed: Susan Weinert / Beyond the Rainbow
--------------------------------------------------------------------------------

DR         Peak         RMS     Duration Track
--------------------------------------------------------------------------------
DR13      -2.03 dB   -19.32 dB      8:42 01-Das Windrad
DR13      -1.55 dB   -18.04 dB      5:20 02-Eisblume
DR13      -0.34 dB   -15.85 dB      5:42 03-Chinatown
DR14      -0.45 dB   -18.20 dB      9:08 04-Licht
DR13      -0.50 dB   -17.40 dB      7:42 05-Provence
DR13      -0.98 dB   -18.30 dB      5:02 06-Mohnblume
DR13      -0.66 dB   -16.21 dB      4:23 07-A Day Like This
DR15      -1.00 dB   -20.92 dB      7:44 08-Die Kraniche
--------------------------------------------------------------------------------

Number of tracks:  8
Official DR value: DR13

Samplerate:        96000 Hz
Channels:          2
Bits per sample:   24
Bitrate:           2481 kbps
Codec:             FLAC
================================================================================
No seeders - write personal message to M0p94ok. Any questions - support@pro-jazz.com.
Нет сидеров - пишите в личку M0p94ok. Есть вопросы - support@pro-jazz.com
00:29
243
Нет комментариев. Ваш будет первым!