Поиск

2018 Ralph Lavital, Laurent Coq - Bwa {88TREES} [24-44,1]

2018 Ralph Lavital, Laurent Coq - Bwa {88TREES} [24-44,1]
Дата записи диска:
21 декабря - 22 декабря 2017
Место записи:
La Maison des Artistes, Chamonix, France
Дата издания диска:
24 декабря 2018
Номер по каталогу:
88TREES04
Носитель:
WEB
Формат:
PCM
Тип рипа:
tracks+.cue
Контейнер:
APE (*.ape)
Количество каналов:
2.0
Разрядность/ЧД:
24/44,1
Битрейт аудио:
lossless
Время звучания:
00:53:12
Наличие сканов:
web
Страна-производитель диска (релиза):
France
Релизёр (источник):
M0p94ok
Лог проверки качества
foobar2000 1.3.16 / Dynamic Range Meter 1.1.1
log date: 2019-03-30 23:21:08

--------------------------------------------------------------------------------
Analyzed: Ralph Lavital / Bwa
--------------------------------------------------------------------------------

DR         Peak         RMS     Duration Track
--------------------------------------------------------------------------------
DR7       -0.70 dB    -9.63 dB      4:56 01-Tandem
DR7       -0.70 dB   -10.79 dB      7:11 02-Kouri
DR6       -0.70 dB    -8.63 dB      5:45 03-Sa Ki Sav
DR7       -0.77 dB   -10.17 dB      3:35 04-Maurice
DR7       -0.70 dB   -11.08 dB      5:36 05-Mr. V.J.
DR8       -0.70 dB   -10.14 dB      4:24 06-Mwen Two Kontan
DR7       -0.70 dB    -9.90 dB      4:59 07-Zanmi
DR9       -0.73 dB   -11.93 dB      2:54 08-Playdate
DR8       -0.79 dB   -12.26 dB      6:35 09-Johanne
DR6       -0.70 dB    -8.73 dB      7:21 10-Padone Yo
--------------------------------------------------------------------------------

Number of tracks:  10
Official DR value: DR7

Samplerate:        44100 Hz
Channels:          2
Bits per sample:   24
Bitrate:           1482 kbps
Codec:             FLAC
================================================================================
No seeders - write personal message to M0p94ok. Any questions - support@pro-jazz.com.
Нет сидеров - пишите в личку M0p94ok. Есть вопросы - support@pro-jazz.com
21:26
205
Нет комментариев. Ваш будет первым!