Поиск

2020 David Liebman - Quint5T {Inner Voice Jazz} [24-44,1]

2020 David Liebman - Quint5T {Inner Voice Jazz} [24-44,1]
Стили:
Дата записи диска:
26 января и 27 января 2020
Место записи:
The Samurai Hotel, New York City, NY, USA
Дата издания диска:
18 сентября 2020
Номер по каталогу:
IVJ 106(US)
Носитель:
WEB
Формат:
PCM
Тип рипа:
tracks+.cue
Контейнер:
APE (*.ape)
Количество каналов:
2.0
Разрядность/ЧД:
24/44,1
Битрейт аудио:
lossless
Время звучания:
01:00:22
Наличие сканов:
web
Наличие водяных знаков:
нет
Страна-производитель диска (релиза):
USA
Релизёр (источник):
M0p94ok

Треклист:

1. Mystery Song 5:52
2. Off a Bird 3:48
3. Figment 7:51
4. Broken Time 6:45
5. Moontide 9:55
6. Child at Play 6:58
7. Broken Time [Reprise] 3:39
8. There's a Mingus Amonk Us 6:27
9. Pocketful of Change 9:11

Лог проверки качества
foobar2000 1.5.5 / Dynamic Range Meter 1.1.1
log date: 2020-10-22 10:25:12

--------------------------------------------------------------------------------
Analyzed: David Liebman, Randy Brecker, Marc Copland, Drew Gress Joey Baron / Quint5T
--------------------------------------------------------------------------------

DR         Peak         RMS     Duration Track
--------------------------------------------------------------------------------
DR10      -0.66 dB   -13.97 dB      5:52 01-Mystery Song
DR11      -0.64 dB   -13.82 dB      3:48 02-Off a Bird
DR10      -0.61 dB   -14.25 dB      7:51 03-Figment
DR9       -0.50 dB   -12.17 dB      6:45 04-Broken Time
DR10      -0.59 dB   -12.96 dB      9:55 05-Moontide
DR9       -0.68 dB   -13.33 dB      6:58 06-Child at Play
DR14      -2.60 dB   -20.81 dB      3:39 07-Broken Time (Reprise)
DR10      -0.62 dB   -12.74 dB      6:27 08-There's a Mingus Amonk Us
DR14      -0.70 dB   -18.22 dB      9:11 09-Pocketful of Change
--------------------------------------------------------------------------------

Number of tracks:  9
Official DR value: DR11

Samplerate:        44100 Hz
Channels:          2
Bits per sample:   24
Bitrate:           1275 kbps
Codec:             FLAC
================================================================================
Приватный:
Нет (DHT включён)
Размер:
627.74 Мб (658,237,895 байт) » файлов: 11
Участники:
1 раздают, 0 качают (1 участников всего)
Внешние участники:
--- [ Обновить ]
No seeders - write personal message to M0p94ok. Any questions - support@pro-jazz.com.
Нет сидеров - пишите в личку M0p94ok. Есть вопросы - support@pro-jazz.com
21:48
170
Нет комментариев. Ваш будет первым!