Вы используете незарегистрированную версию компонента "Вкладки"!

Поиск

1962 Etta Jones - Lonely And Blue (2019) {RevOla} [24-44,1]

1962 Etta Jones - Lonely And Blue (2019) {RevOla} [24-44,1]
Стили:
Дата записи диска:
6 апреля и 4 мая 1962
Место записи:
Van Gelder Recording Studio, Englewood Cliffs, New Jersey, USA
Дата переиздания диска:
19 марта 2019
Издатель (лейбл):
Битрейт аудио:
lossless
Доп. инфо:

Формат записи/Источник записи: [TR24][OF]
Издание: Remastered
Год издания/переиздания диска: 1962/2019
Продолжительность: 00:50:03
Наличие сканов в содержимом раздачи: Нет

Контейнер: FLAC (*.flac)
Тип рипа: tracks
Разрядность: 24/44,1
Количество каналов: 2.0

Источник (релизер): Qobuz

Лог проверки качества
foobar2000 1.3.16 / Dynamic Range Meter 1.1.1
log date: 2019-03-22 23:36:50

--------------------------------------------------------------------------------
Analyzed: Etta Jones / Lonely And Blue
--------------------------------------------------------------------------------

DR         Peak         RMS     Duration Track
--------------------------------------------------------------------------------
DR13      -5.75 dB   -22.75 dB      2:55 01-I'll Be There
DR13      -2.87 dB   -19.69 dB      2:55 02-In The Dark
DR13      -4.00 dB   -20.70 dB      3:17 03-Out In The Cold Again
DR15      -1.91 dB   -22.85 dB      3:38 04-I'm Pulling Through
DR13      -1.86 dB   -19.36 dB      2:20 05-My Gentleman Friend
DR13      -4.64 dB   -21.07 dB      3:20 06-I Wonder
DR15      -1.57 dB   -22.52 dB      3:51 07-You Don't Know My Mind
DR13      -2.42 dB   -20.22 dB      3:10 08-Gee Baby,Ain't I Good To You
DR13      -2.18 dB   -21.64 dB      3:50 09-Good For Nothing Joe
DR14      -2.88 dB   -21.78 dB      3:26 10-I Miss You So
DR12      -3.92 dB   -19.73 dB      3:44 11-Trav'lin' Light
DR14      -2.32 dB   -19.81 dB      4:28 12-But Not For Me
DR11      -3.15 dB   -20.08 dB      4:23 13-If You're But A Dream
DR14      -3.10 dB   -19.35 dB      4:51 14-Cool Cool Daddy
--------------------------------------------------------------------------------

Number of tracks:  14
Official DR value: DR13

Samplerate:        44100 Hz
Channels:          2
Bits per sample:   24
Bitrate:           1497 kbps
Codec:             FLAC
================================================================================
Any questions - support@pro-jazz.com. Есть вопросы - support@pro-jazz.com
10:59
275
Нет комментариев. Ваш будет первым!