Вы используете незарегистрированную версию компонента "Вкладки"!

Поиск

2020 Diego Urcola Quartet ft. Paquito D’Rivera - El Duelo {Sunnyside} [24-88,2]

2020 Diego Urcola Quartet ft. Paquito D’Rivera - El Duelo {Sunnyside} [24-88,2]
Стили:
Дата издания диска:
18 сентября 2020
Издатель (лейбл):
Номер по каталогу:
SSC 4560
Битрейт аудио:
lossless
Доп. инфо:

Формат записи/Источник записи: [TR24][OF]
Год издания/переиздания диска: 2020
Издатель (лейбл): Sunnyside
Продолжительность: 01:16:33
Наличие сканов в содержимом раздачи: Буклет PDF

Контейнер: FLAC (*.flac)
Тип рипа: tracks
Разрядность: 24/88,2
Количество каналов: 2.0
Другие дорожки звука: Mild example of loudness war, mild trimming at -0.30 dB

Источник (релизер): bandcamp

Лог проверки качества
foobar2000 1.4.3 / Dynamic Range Meter 1.1.1
log date: 2020-10-17 16:50:55

--------------------------------------------------------------------------------
Analyzed: Diego Urcola Quartet / El Duelo
--------------------------------------------------------------------------------

DR         Peak         RMS     Duration Track
--------------------------------------------------------------------------------
DR10      -0.30 dB   -12.85 dB      5:06 01-El Duelo
DR8       -0.30 dB   -10.94 dB      5:53 02-Tango Azul
DR10      -0.30 dB   -12.77 dB      4:46 03-Una Muy Bonita
DR10      -0.30 dB   -13.09 dB      6:10 04-La Yumba / Caravan
DR12      -0.30 dB   -16.52 dB      3:20 05-Pekin
DR9       -0.30 dB   -12.27 dB      4:40 06-The Natural
DR12      -0.30 dB   -14.54 dB      5:31 07-Buenos Aires
DR9       -0.30 dB   -11.24 dB      5:01 08-Foxy Trot
DR10      -0.30 dB   -13.61 dB      4:36 09-I Know, Don’t Know How
DR11      -0.30 dB   -13.18 dB      6:44 10-Libertango
DR11      -0.30 dB   -13.26 dB      4:51 11-Sacajawea (Theme)
DR11      -0.30 dB   -14.60 dB      5:00 12-Leyenda
DR10      -0.30 dB   -13.05 dB      4:51 13-Con Alma
DR10      -0.30 dB   -12.99 dB      5:01 14-Stablemates
DR10      -0.30 dB   -12.66 dB      5:10 15-Bye-Ya
--------------------------------------------------------------------------------

Number of tracks:  15
Official DR value: DR10

Samplerate:        88200 Hz
Channels:          2
Bits per sample:   24
Bitrate:           2600 kbps
Codec:             FLAC
================================================================================
Any questions - support@pro-jazz.com. Есть вопросы - support@pro-jazz.com
02:22
271
Нет комментариев. Ваш будет первым!