Поиск

1958 Vince Guaraldi Trio - A Flower Is A Lovesome Thing (2016) {Trunk} [24-44,1]

1958 Vince Guaraldi Trio - A Flower Is A Lovesome Thing (2016) {Trunk} [24-44,1]
Дата записи диска:
16 апреля 1957
Дата издания диска:
1 апреля 1958
Дата переиздания диска:
1 декабря 2016
Носитель:
WEB
Формат:
PCM
Тип рипа:
tracks+.cue
Контейнер:
APE (*.ape)
Количество каналов:
2.0
Разрядность/ЧД:
24/44,1
Битрейт аудио:
lossless
Время звучания:
00:34:42
Наличие сканов:
web
Наличие водяных знаков:
нет
Страна-производитель диска (релиза):
USA
Релизёр (источник):
M0p94ok

Треклист:

1. A Flower Is a Lovesome Thing  05:38
2. Softly, As In A Monring Sunrise  03:22
3. Yesterdays  04:02
4. Like A Mighty Rose  04:30
5. Looking For A Boy  04:08
6. Autumn Leaves  04:20
7. Lonely Girl  03:26
8. Willow Weep For Me  05:16

Лог проверки качества
foobar2000 1.5.5 / Dynamic Range Meter 1.1.1
log date: 2020-12-02 10:24:43

--------------------------------------------------------------------------------
Analyzed: Vince Guaraldi Trio / A Flower Is A Lovesome Thing
--------------------------------------------------------------------------------

DR         Peak         RMS     Duration Track
--------------------------------------------------------------------------------
DR12     -10.14 dB   -26.71 dB      5:38 01-A Flower Is a Lovesome Thing
DR12      -6.96 dB   -23.42 dB      3:22 02-Softly, As In A Monring Sunrise
DR13     -10.38 dB   -27.30 dB      4:02 03-Yesterdays
DR13     -11.15 dB   -28.05 dB      4:30 04-Like A Mighty Rose
DR12      -5.68 dB   -20.54 dB      4:08 05-Looking For A Boy
DR13      -5.99 dB   -25.33 dB      4:20 06-Autumn Leaves
DR13      -7.19 dB   -24.68 dB      3:26 07-Lonely Girl
DR14      -6.90 dB   -25.22 dB      5:16 08-Willow Weep For Me
--------------------------------------------------------------------------------

Number of tracks:  8
Official DR value: DR13

Samplerate:        44100 Hz
Channels:          2
Bits per sample:   24
Bitrate:           1153 kbps
Codec:             FLAC
================================================================================
Приватный:
Нет (DHT включён)
Размер:
288.70 Мб (302,720,132 байт) » файлов: 10
Участники:
4 раздают, 0 качают (4 участников всего)
Внешние участники:
--- [ Обновить ]
No seeders - write personal message to M0p94ok. Нет сидеров - пишите в личку M0p94ok.
15:38
151
Нет комментариев. Ваш будет первым!