Поиск

2020 VA - Blue Note Re:imagined (Deluxe) {Decca (UMO)} [24-44,1]

2020 VA - Blue Note Re:imagined (Deluxe) {Decca (UMO)} [24-44,1]
Стили:
Издатель (лейбл):
Битрейт аудио:
lossless
Доп. инфо:

Формат записи/Источник записи: [TR24][OF]
Наличие водяных знаков: Нет
Год издания/переиздания диска: 2020
Жанр: Contemporary Jazz
Издатель (лейбл): Decca (UMO)
Продолжительность: 01:28:50
Наличие сканов в содержимом раздачи: Только обложка альбома

Контейнер: FLAC (*.flac)
Тип рипа: tracks
Разрядность: 24/44,1
Формат: FLAC (.flac)
Количество каналов: 2.0

Источник (релизер): redacted <-- mora

 

Лог проверки качества
foobar2000 1.6.1 / Dynamic Range Meter 1.1.1
log date: 2020-10-27 23:37:52

--------------------------------------------------------------------------------
Analyzed: Alfa Mist / Blue Note Re:imagined (1)
          Blue Lab Beats / Blue Note Re:imagined (2)
          Emma-Jean Thackray / Blue Note Re:imagined (3)
          Ezra Collective / Blue Note Re:imagined (4)
          Fieh / Blue Note Re:imagined (5)
          Ishmael Ensemble / Blue Note Re:imagined (6)
          Jordan Rakei / Blue Note Re:imagined (7)
          Jorja Smith / Blue Note Re:imagined (8)
          Kan Sano / Blue Note Re:imagined (9)
          Melt Yourself Down / Blue Note Re:imagined (10)
          Mr Jukes / Blue Note Re:imagined (11)
          Nubya Garcia / Blue Note Re:imagined (12)
          Poppy Ajudha / Blue Note Re:imagined (13)
          Shabaka Hutchings / Blue Note Re:imagined (14)
          Skinny Pelembe / Blue Note Re:imagined (15)
          Steam Down (feat. Afronaut Zu) / Blue Note Re:imagined (16)
          Yazmin Lacey / Blue Note Re:imagined (17)
--------------------------------------------------------------------------------

DR         Peak         RMS     Duration Track
--------------------------------------------------------------------------------
DR9       -0.01 dB   -11.99 dB      9:13 06-Galaxy
DR9       -0.10 dB   -11.58 dB      5:52 10-Montara
DR10       0.00 dB   -12.11 dB      5:00 16-Speak No Evil (Night Dreamer)
DR10       0.00 dB   -11.98 dB      6:21 02-Footprints
DR9       -0.01 dB   -10.92 dB      3:29 12-Armageddon
DR8       -0.15 dB   -10.66 dB      4:21 07-Search for Peace
DR9       -0.07 dB   -10.98 dB      4:49 04-Wind Parade
DR8       -0.85 dB   -11.52 dB      5:58 01-Rose Rouge
DR9        0.00 dB   -10.54 dB      4:30 17-Think Twice
DR7       -0.02 dB   -10.20 dB      3:15 15-Caribbean Fire Dance
DR9       -0.11 dB   -11.79 dB      4:13 13-Maiden Voyage
DR9       -0.06 dB   -10.74 dB      6:48 08-A Shade of Jade
DR10      -0.03 dB   -12.04 dB      4:31 03-Watermelon Man (Under the Sun)
DR9       -0.08 dB   -12.16 dB      6:41 14-Prints Tie
DR11      -0.45 dB   -15.18 dB      4:13 05-Illusion (Silly Apparition)
DR7       -2.05 dB   -11.16 dB      4:39 09-Etcetera
DR11      -0.10 dB   -12.92 dB      4:57 11-I'll Never Stop Loving You
--------------------------------------------------------------------------------

Number of tracks:  17
Official DR value: DR9

Samplerate:        44100 Hz
Channels:          2
Bits per sample:   24
Bitrate:           1460 kbps
Codec:             FLAC
================================================================================
No seeders - write personal message to M0p94ok. Any questions - support@pro-jazz.com.
Нет сидеров - пишите в личку M0p94ok. Есть вопросы - support@pro-jazz.com
21:01
210
Нет комментариев. Ваш будет первым!