Поиск

2020 Joel Ross - Who Are You? {Blue Note} [24-96]

2020 Joel Ross - Who Are You? {Blue Note} [24-96]
Издатель (лейбл):
Битрейт аудио:
lossless
Доп. инфо:

Формат записи/Источник записи: [TR24][OF]
Наличие водяных знаков: Нет
Год издания/переиздания диска: 2020
Продолжительность: 01:10:05
Наличие сканов в содержимом раздачи: Только обложка альбома

Контейнер: FLAC (*.flac)
Тип рипа: tracks
Разрядность: 24/96
Формат: PCM
Количество каналов: 2.0

Источник (релизер): qobuz

Лог проверки качества
foobar2000 1.6.1 / Dynamic Range Meter 1.1.1
log date: 2020-10-27 23:54:49

--------------------------------------------------------------------------------
Analyzed: Joel Ross / Who Are You?
--------------------------------------------------------------------------------

DR         Peak         RMS     Duration Track
--------------------------------------------------------------------------------
DR8       -0.40 dB   -11.60 dB      3:32 01-Dream
DR11      -5.46 dB   -19.91 dB      1:01 02-Calling
DR9       -0.40 dB   -11.31 dB      9:08 03-Home
DR8       -0.40 dB   -10.36 dB      4:14 04-More?
DR8       -0.40 dB   -11.92 dB      5:20 05-After the Rain
DR9       -0.40 dB   -11.46 dB     10:35 06-Vartha
DR8       -0.40 dB    -9.68 dB      3:43 07-Marsheland
DR8       -0.40 dB    -9.87 dB      4:08 08-Waiting on a Solemn Reminiscence
DR10      -2.12 dB   -16.44 dB      1:02 09-King's Loop
DR7       -0.40 dB    -9.83 dB      3:18 10-The Nurturer
DR7       -0.40 dB   -10.09 dB      6:08 11-Gato's Gift
DR8       -0.40 dB   -10.86 dB      6:44 12-When My Head Is Cold
DR8       -0.40 dB   -11.54 dB      1:56 13-Harmonee
DR8       -0.40 dB   -10.27 dB      4:14 14-Such Is Life
DR8       -0.40 dB    -9.97 dB      5:02 15-3-1-2
--------------------------------------------------------------------------------

Number of tracks:  15
Official DR value: DR8

Samplerate:        96000 Hz
Channels:          2
Bits per sample:   24
Bitrate:           3111 kbps
Codec:             FLAC
================================================================================
No seeders - write personal message to M0p94ok. Any questions - support@pro-jazz.com.
Нет сидеров - пишите в личку M0p94ok. Есть вопросы - support@pro-jazz.com
00:39
303
Нет комментариев. Ваш будет первым!