Поиск

2019 Christoph Irniger Pilgrim - Crosswinds {Intakt} [24-88,2]

2019 Christoph Irniger Pilgrim - Crosswinds {Intakt} [24-88,2]
Дата записи диска:
15 апреля - 18 апреля 2018
Место записи:
Studio La Buissonne, Pernes-Les-Fontaines, France
Дата издания диска:
18 января 2019
Издатель (лейбл):
Носитель:
WEB
Формат:
PCM
Тип рипа:
tracks+.cue
Контейнер:
APE (*.ape)
Количество каналов:
2.0
Разрядность/ЧД:
24/88,2
Битрейт аудио:
lossless
Время звучания:
00:52:31
Наличие сканов:
web
Наличие водяных знаков:
нет
Релизёр (источник):
M0p94ok

Треклист:

1. Big Wheel  09:05
2. Luce oscura  04:58
3. Point of View  08:00
4. Miniature  01:16
5. Crosswinds  09:07
6. C Major Improvisation  03:37
7. Studio Song  03:34
8. Inside  06:56
9. Aeon  05:58

Лог проверки качества
foobar2000 1.5.5 / Dynamic Range Meter 1.1.1
log date: 2020-12-03 15:41:44

--------------------------------------------------------------------------------
Analyzed: Pilgrim / Crosswinds
--------------------------------------------------------------------------------

DR         Peak         RMS     Duration Track
--------------------------------------------------------------------------------
DR10      -0.30 dB   -14.95 dB      9:05 01-Big Wheel
DR12      -1.61 dB   -19.81 dB      4:59 02-Luce Oscura: Luce oscura
DR10      -0.30 dB   -13.53 dB      8:01 03-Point of View
DR11      -8.31 dB   -28.09 dB      1:17 04-Miniature
DR10      -0.30 dB   -13.62 dB      9:07 05-Crosswinds
DR13      -0.32 dB   -18.02 dB      3:38 06-C Major Improvisation
DR9       -0.30 dB   -12.54 dB      3:35 07-Studio Song
DR9       -0.30 dB   -12.98 dB      6:56 08-Inside
DR12      -1.99 dB   -19.35 dB      5:58 09-Aeon
--------------------------------------------------------------------------------

Number of tracks:  9
Official DR value: DR11

Samplerate:        88200 Hz
Channels:          2
Bits per sample:   24
Bitrate:           2417 kbps
Codec:             FLAC
================================================================================
Приватный:
Нет (DHT включён)
Размер:
975.30 Мб (1,022,671,380 байт) » файлов: 11
Участники:
1 раздают, 0 качают (1 участников всего)
Внешние участники:
--- [ Обновить ]
No seeders - write personal message to M0p94ok. Any questions - support@pro-jazz.com.
Нет сидеров - пишите в личку M0p94ok. Есть вопросы - support@pro-jazz.com
17:05
181
Нет комментариев. Ваш будет первым!