Вы используете незарегистрированную версию компонента "Вкладки"!

Поиск

2010 Olivia Trummer - Nobody Knows {Neuklang NCD4044} [24-44,1]

2010 Olivia Trummer - Nobody Knows {Neuklang NCD4044} [24-44,1]
Место записи:
Bauer Studios, Ludwigsburg, Germany
Дата издания диска:
26 марта 2010
Издатель (лейбл):
Номер по каталогу:
NCD4044
Носитель:
WEB
Формат:
PCM
Тип рипа:
tracks+.cue
Контейнер:
APE (*.ape)
Количество каналов:
2.0
Разрядность/ЧД:
24/44,1
Битрейт аудио:
lossless
Время звучания:
01:01:52
Наличие сканов:
да
Страна-производитель диска (релиза):
Germany
Релизёр (источник):
M0p94ok
Лог проверки качества
foobar2000 1.5.5 / Dynamic Range Meter 1.1.1
log date: 2020-12-03 18:13:57

--------------------------------------------------------------------------------
Analyzed: Olivia Trummer Trio & Matthias Schriefl / Nobody knows (1-4)
          Olivia Trummer Trio / Nobody knows (5-10)
--------------------------------------------------------------------------------

DR         Peak         RMS     Duration Track
--------------------------------------------------------------------------------
DR11      -0.28 dB   -13.68 dB      5:29 03-Nobody Knows
DR15      -0.32 dB   -18.28 dB      6:45 04-Sweets
DR12      -0.29 dB   -16.13 dB      9:03 07-Falling Leaves
DR13      -0.31 dB   -16.79 dB      6:19 09-Abendröte
DR10      -0.26 dB   -13.19 dB      9:57 01-Morgentanz
DR13      -4.00 dB   -20.90 dB      2:47 02-Intro
DR13      -1.84 dB   -19.82 dB      3:04 05-Reflection I
DR11      -0.27 dB   -13.81 dB      8:21 06-Seaside
DR12      -2.18 dB   -19.68 dB      2:33 08-Reflection II
DR13      -0.37 dB   -17.37 dB      7:38 10-Wie Die Zeit Vergeht
--------------------------------------------------------------------------------

Number of tracks:  10
Official DR value: DR12

Samplerate:        44100 Hz
Channels:          2
Bits per sample:   24
Bitrate:           1397 kbps
Codec:             FLAC
================================================================================
Any questions - support@pro-jazz.com. Есть вопросы - support@pro-jazz.com
20:19
260
Нет комментариев. Ваш будет первым!