Поиск

1960 Mongo Santamaria - ¡Sabroso! (2018) {RevOla, Fantasy 3314} [24-44,1]

1960 Mongo Santamaria - ¡Sabroso! (2018) {RevOla, Fantasy 3314} [24-44,1]
Дата записи диска:
1 мая 1959
Место записи:
San Francisco, CA, USA
Дата переиздания диска:
26 сентября 2018
Издатель (лейбл):
Номер по каталогу:
Fantasy 3314
Носитель:
WEB
Формат:
PCM
Тип рипа:
tracks+.cue
Контейнер:
APE (*.ape)
Количество каналов:
2.0
Разрядность/ЧД:
24/44,1
Битрейт аудио:
lossless
Время звучания:
00:42:02
Наличие сканов:
web
Наличие водяных знаков:
нет
Страна-производитель диска (релиза):
USA
Релизёр (источник):
M0p94ok

Треклист:

01. Que Maravolloso (remastered)  02:48
02. En La Felicidad (remastered)  02:09
03. Pachanga Pa Ti (remastered)  02:23
04. Tulibamba (remastered)  04:01
05. Mambo de Cuco (remastered)  03:55
06. El Bote (remastered)  03:59
07. Pito Pito (remastered)  02:45
08. Guaguanco Mania (remastered)  02:31
09. Ja, Ja-Ja (remastered)  03:05
10. Tula Hula (remastered)  02:41
11. Dimelo (remastered)  02:37
12. A La Luna Me Voy (remastered)  03:07
13. Para Ti (remastered)  06:01

Лог проверки качества
foobar2000 1.3.16 / Dynamic Range Meter 1.1.1
log date: 2019-03-26 23:43:33

--------------------------------------------------------------------------------
Analyzed: Mongo Santamaria / Sabroso!
--------------------------------------------------------------------------------

DR         Peak         RMS     Duration Track
--------------------------------------------------------------------------------
DR5        0.00 dB    -7.22 dB      2:49 01-Que Maravolloso (remastered)
DR6        0.00 dB    -7.23 dB      2:10 02-En La Felicidad (remastered)
DR6        0.00 dB    -7.47 dB      2:24 03-Pachanga Pa Ti (remastered)
DR5        0.00 dB    -6.18 dB      4:01 04-Tulibamba (remastered)
DR6        0.00 dB    -7.71 dB      3:56 05-Mambo de Cuco (remastered)
DR5        0.00 dB    -7.12 dB      4:00 06-El Bote (remastered)
DR7        0.00 dB    -7.68 dB      2:45 07-Pito Pito (remastered)
DR6        0.00 dB    -7.53 dB      2:31 08-Guaguanco Mania (remastered)
DR5        0.00 dB    -7.16 dB      3:05 09-Ja, Ja-Ja (remastered)
DR5        0.00 dB    -7.02 dB      2:41 10-Tula Hula (remastered)
DR6        0.00 dB    -7.41 dB      2:38 11-Dimelo (remastered)
DR5        0.00 dB    -6.95 dB      3:07 12-A La Luna Me Voy (remastered)
DR7        0.00 dB    -8.27 dB      6:02 13-Para Ti (remastered)
--------------------------------------------------------------------------------

Number of tracks:  13
Official DR value: DR6

Samplerate:        44100 Hz
Channels:          2
Bits per sample:   24
Bitrate:           1644 kbps
Codec:             FLAC
================================================================================
Приватный:
Нет (DHT включён)
Размер:
495.32 Мб (519,378,285 байт) » файлов: 15
Участники:
1 раздают, 0 качают (1 участников всего)
Внешние участники:
--- [ Обновить ]
No seeders - write personal message to M0p94ok. Any questions - support@pro-jazz.com.
Нет сидеров - пишите в личку M0p94ok. Есть вопросы - support@pro-jazz.com
16:07
184
Нет комментариев. Ваш будет первым!