Вы используете незарегистрированную версию компонента "Вкладки"!

Поиск

2002 Fumio Yasuda - Schumann's Bar Music (2018) {Winter & Winter 910 081-2} [24-44,1]

2002 Fumio Yasuda - Schumann's Bar Music (2018) {Winter & Winter 910 081-2} [24-44,1]
Стили:
Дата записи диска:
1 февраля - 1 декабря 2001
Дата издания диска:
7 мая 2002
Дата переиздания диска:
20 сентября 2018
Номер по каталогу:
Winter & Winter 910 081-2
Носитель:
WEB
Формат:
PCM
Тип рипа:
tracks+.cue
Контейнер:
APE (*.ape)
Количество каналов:
2.0
Разрядность/ЧД:
24/44,1
Битрейт аудио:
lossless
Время звучания:
00:50:20
Наличие сканов:
да
Страна-производитель диска (релиза):
Germany
Релизёр (источник):
M0p94ok
Лог проверки качества
foobar2000 1.3.16 / Dynamic Range Meter 1.1.1
log date: 2019-03-12 23:20:57

--------------------------------------------------------------------------------
Analyzed: Fumio Yasuda / Schumann's Bar Music
--------------------------------------------------------------------------------

DR         Peak         RMS     Duration Track
--------------------------------------------------------------------------------
DR19      -1.44 dB   -26.83 dB      1:41 01-At Schumann's
DR10      -1.44 dB   -15.59 dB      3:29 02-Gone with the Wind
DR13      -1.86 dB   -20.97 dB      1:39 03-Emily
DR12      -2.45 dB   -19.84 dB      1:13 04-Someday My Prince Will Come
DR14      -1.44 dB   -18.64 dB      3:28 05-So Do I
DR12      -1.44 dB   -18.28 dB      4:08 06-Somewhere over the Rainbow
DR12      -1.42 dB   -17.21 dB      2:53 07-Keepin' out of Mischief Now
DR13      -1.45 dB   -19.40 dB      3:27 08-Try to Remeber
DR13      -1.42 dB   -19.51 dB      3:18 09-Moon River
DR14      -1.40 dB   -20.34 dB      3:40 10-Just Squeeze Me (But Don't Tease Me)
DR12      -1.41 dB   -17.34 dB      2:48 11-I've Grown Accustomed to Her Face
DR13      -1.42 dB   -18.30 dB      3:28 12-Charade
DR11      -1.38 dB   -17.44 dB      5:40 13-I Loves You Porgy
DR12      -1.40 dB   -17.70 dB      2:30 14-Bewitched
DR12      -1.42 dB   -16.62 dB      4:04 15-Smoke Gets in Your Eyes
DR13      -1.48 dB   -18.87 dB      2:58 16-Last Waltz
--------------------------------------------------------------------------------

Number of tracks:  16
Official DR value: DR13

Samplerate:        44100 Hz
Channels:          2
Bits per sample:   24
Bitrate:           1264 kbps
Codec:             FLAC
================================================================================
Any questions - support@pro-jazz.com. Есть вопросы - support@pro-jazz.com
21:40
225
Нет комментариев. Ваш будет первым!