Поиск

1972, 1973 Doc Severinsen - Rhapsody For Now! & Doc (2017) {Vocalion CDLK 4609} [DST64]

1972, 1973 Doc Severinsen - Rhapsody For Now! & Doc (2017) {Vocalion CDLK 4609} [DST64]
Стили:
Издатель (лейбл):
Номер по каталогу:
CDLK 4609
Битрейт аудио:
lossless
Доп. инфо:

Формат записи/Источник записи: [SACD-R][OF]
Наличие водяных знаков: Нет
Год издания/переиздания диска: 1972, 1973/2017
Издатель (лейбл): Vocalion ‎– CDLK 4609
Продолжительность: 105:31
Наличие сканов в содержимом раздачи: Да (сканы)

Контейнер: ISO (*.iso)
Тип рипа: image
Разрядность: 64(2,8 MHz/1 Bit)
Формат: DST64
Количество каналов: 2.0, 5.1

Источник (релизер): https://www.discogs.com/Doc-Severinsen-Rhapsody-For-Now-Doc/release/11476776

Лог проверки качества
foobar2000 1.3.3 (cdpos.biz) / Dynamic Range Meter 1.1.1

--------------------------------------------------------------------------------
Analyzed: Doc Severinsen / Rhapsody For Now
--------------------------------------------------------------------------------

DR         Peak         RMS     Duration Track
--------------------------------------------------------------------------------
DR12      -6.22 dB   -21.18 dB      1:52 1-Live and Let Die
DR11      -6.82 dB   -20.53 dB      2:50 2-Soul Makossa
DR11      -6.79 dB   -22.21 dB      3:03 3-Yesterday Once More
DR11      -7.03 dB   -23.05 dB      3:41 4-Touch Me in the Morning
DR11      -6.35 dB   -19.95 dB      2:24 5-Shambala
DR11      -6.05 dB   -22.06 dB      3:09 6-My Love
DR11      -6.61 dB   -20.46 dB      3:20 7-Promenade
DR11      -6.78 dB   -22.32 dB      2:16 8-California Dreamin
DR11      -7.52 dB   -24.64 dB      1:32 9-The Look of Love
DR10      -6.46 dB   -20.91 dB      3:45 10-A Song for You
DR11      -6.38 dB   -20.34 dB      1:27 11-Sweet Caroline
DR11      -6.48 dB   -22.17 dB      3:23 12-Youve Got a Friend
DR12      -6.04 dB   -21.77 dB      9:07 13-I Remember Louis
DR11      -8.42 dB   -22.62 dB      3:08 14-Liberia
DR10      -9.20 dB   -22.69 dB      2:41 15-Portnoys Complaint
DR10      -9.07 dB   -23.58 dB      3:05 16-Summer of 42
DR11      -9.03 dB   -24.65 dB      3:18 17-The First Time Ever I Saw Your Face
DR11      -8.91 dB   -22.91 dB      2:40 18-Living Free
DR10      -9.19 dB   -22.13 dB      2:09 19-Offertory
DR11     -10.67 dB   -23.93 dB      3:21 20-Bonnie
DR11      -8.76 dB   -25.43 dB      3:13 21-Baby  Im a Want You
DR11      -8.57 dB   -24.28 dB      3:43 22-The Godfather Waltz
DR10      -8.31 dB   -22.43 dB      2:37 23-Lucky Me
DR10      -9.60 dB   -22.86 dB      3:35 24-I Only Want to Say
--------------------------------------------------------------------------------

Number of tracks:  24
Official DR value: DR11

Samplerate:        2822400 Hz / PCM Samplerate: 88200 Hz
Channels:          2
Bits per sample:   24
Bitrate:           5645 kbps
Codec:             DST64
================================================================================

foobar2000 1.3.3 (cdpos.biz) / Dynamic Range Meter 1.1.1

--------------------------------------------------------------------------------
Analyzed: Doc Severinsen / Rhapsody For Now
--------------------------------------------------------------------------------

DR         Peak         RMS     Duration Track
--------------------------------------------------------------------------------
DR8       -8.97 dB   -25.92 dB      1:52 1-Live and Let Die
DR7       -7.90 dB   -24.85 dB      2:50 2-Soul Makossa
DR7       -8.48 dB   -26.69 dB      3:03 3-Yesterday Once More
DR9       -9.04 dB   -27.51 dB      3:41 4-Touch Me in the Morning
DR7       -8.08 dB   -24.86 dB      2:24 5-Shambala
DR8       -6.55 dB   -26.01 dB      3:09 6-My Love
DR7       -6.43 dB   -23.60 dB      3:20 7-Promenade
DR8       -7.44 dB   -26.92 dB      2:16 8-California Dreamin
DR9       -9.19 dB   -30.32 dB      1:32 9-The Look of Love
DR8       -8.54 dB   -26.06 dB      3:45 10-A Song for You
DR8       -6.49 dB   -24.01 dB      1:27 11-Sweet Caroline
DR8       -7.52 dB   -25.67 dB      3:24 12-Youve Got a Friend
DR8       -7.28 dB   -25.62 dB      9:07 13-I Remember Louis
--------------------------------------------------------------------------------

Number of tracks:  13
Official DR value: DR8

Samplerate:        2822400 Hz / PCM Samplerate: 88200 Hz
Channels:          6
Bits per sample:   24
Bitrate:           16934 kbps
Codec:             DST64
================================================================================
No seeders - write personal message to M0p94ok. Any questions - support@pro-jazz.com.
Нет сидеров - пишите в личку M0p94ok. Есть вопросы - support@pro-jazz.com
01:15
226
Нет комментариев. Ваш будет первым!