Поиск

1973 The Jimmy Castor Bunch - Dimension III (2017) {Vocalion CDSML 8529} [DST64]

1973 The Jimmy Castor Bunch - Dimension III (2017) {Vocalion CDSML 8529} [DST64]
Издатель (лейбл):
Номер по каталогу:
CDSML 8529
Битрейт аудио:
lossless

Треклист:

01. Revelation (Prologue)  00:36
02. The Last Olé  04:06
03. How Beautiful You Are  03:05
04. I'm Not a Child Anymore  03:16
05. Helpless  03:41
06. Bridge Over Troubled Water  04:38
07. Soul Serenade  03:28
08. Whiter Shade Of Pale  03:20
09. The Lone Ranger  02:37
10. Revelation (Epilogue)  00:47

Доп. инфо:

Формат записи/Источник записи: [SACD-R][OF]
Наличие водяных знаков: Нет
Год издания/переиздания диска: 1973/2017
Продолжительность: 29:52
Наличие сканов в содержимом раздачи: Да (сканы)

Контейнер: ISO (*.iso)
Тип рипа: image
Разрядность: 64(2,8 MHz/1 Bit)
Формат: DST64
Количество каналов: 2.0, 5.1

Лог проверки качества
foobar2000 1.3.3 (cdpos.biz) / Dynamic Range Meter 1.1.1

--------------------------------------------------------------------------------
Analyzed: Jimmy Castor Bunch  / Dimension 3
--------------------------------------------------------------------------------

DR         Peak         RMS     Duration Track
--------------------------------------------------------------------------------
DR7      -10.46 dB   -30.35 dB      0:36 1-Revelation Prologue
DR7       -7.77 dB   -23.84 dB      4:05 2-The Last Ole
DR9       -7.83 dB   -25.81 dB      3:03 3-How Beautiful You Are
DR8       -9.02 dB   -25.57 dB      3:15 4-Im Not a Child Anymore
DR7       -7.92 dB   -23.74 dB      3:40 5-Helpless
DR8       -8.48 dB   -25.64 dB      4:37 6-Bridge Over Troubled Water
DR8       -7.94 dB   -24.60 dB      3:28 7-Soul Serenade
DR8       -7.85 dB   -24.90 dB      3:21 8-Whiter Shade Of Pale
DR8       -8.11 dB   -23.14 dB      2:38 9-The Lone Ranger
DR8      -12.04 dB   -32.68 dB      0:48 10-Revelation
--------------------------------------------------------------------------------

Number of tracks:  10
Official DR value: DR8

Samplerate:        88200 Hz
Channels:          6
Bits per sample:   24
Bitrate:           12700 kbps
Codec:             PCM
================================================================================

foobar2000 1.3.3 (cdpos.biz) / Dynamic Range Meter 1.1.1

--------------------------------------------------------------------------------
Analyzed: Jimmy Castor Bunch  / Dimension 3
--------------------------------------------------------------------------------

DR         Peak         RMS     Duration Track
--------------------------------------------------------------------------------
DR10     -10.37 dB   -28.17 dB      0:36 1-Revelation Prologue
DR12      -6.30 dB   -21.76 dB      4:05 2-The Last Ole
DR14      -6.68 dB   -23.43 dB      3:03 3-How Beautiful You Are
DR13      -7.43 dB   -22.91 dB      3:15 4-Im Not a Child Anymore
DR12      -6.67 dB   -21.45 dB      3:40 5-Helpless
DR12      -9.75 dB   -25.11 dB      4:37 6-Bridge Over Troubled Water
DR12      -7.26 dB   -22.27 dB      3:28 7-Soul Serenade
DR12      -6.04 dB   -21.91 dB      3:21 8-Whiter Shade Of Pale
DR12      -7.72 dB   -21.40 dB      2:38 9-The Lone Ranger
DR11     -12.04 dB   -30.76 dB      0:48 10-Revelation
--------------------------------------------------------------------------------

Number of tracks:  10
Official DR value: DR12

Samplerate:        88200 Hz
Channels:          2
Bits per sample:   24
Bitrate:           4233 kbps
Codec:             PCM
================================================================================
Приватный:
Нет (DHT включён)
Размер:
1.37 Гб (1,468,461,699 байт) » файлов: 10
Участники:
3 раздают, 0 качают (3 участников всего)
Внешние участники:
5 раздают, 1 качают (6 участников всего) [ Обновить ]
No seeders - write personal message to M0p94ok. Any questions - support@pro-jazz.com.
Нет сидеров - пишите в личку M0p94ok. Есть вопросы - support@pro-jazz.com
15:51
188
Нет комментариев. Ваш будет первым!