Поиск

2020 Melody Gardot - Sunset In The Blue {Decca UMO} [24-96]

2020 Melody Gardot - Sunset In The Blue {Decca UMO} [24-96]
Стили:
Дата издания диска:
23 октября 2020
Издатель (лейбл):
Битрейт аудио:
lossless
Доп. инфо:

Формат записи/Источник записи: [TR24][OF]
Наличие водяных знаков: Нет
Год издания/переиздания диска: 2020
Продолжительность: 00:56:33
Наличие сканов в содержимом раздачи: Только обложка альбома

Контейнер: FLAC (*.flac)
Тип рипа: tracks
Разрядность: 24/96
Формат: PCM
Количество каналов: 2.0

Источник (релизер): pic

Лог проверки качества
foobar2000 1.6 / Dynamic Range Meter 1.1.1
log date: 2020-10-23 07:52:00

--------------------------------------------------------------------------------
Analyzed: Melody Gardot, António Zambujo / Sunset In The Blue (1)
          Melody Gardot, Sting / Sunset In The Blue (2)
          Melody Gardot / Sunset In The Blue (3-13)
--------------------------------------------------------------------------------

DR         Peak         RMS     Duration Track
--------------------------------------------------------------------------------
DR9       -0.08 dB   -11.53 dB      4:53 02-C’est Magnifique
DR9       -0.71 dB   -12.82 dB      2:41 13-Little Something
DR11      -0.01 dB   -13.70 dB      4:35 01-If You Love Me
DR9       -0.57 dB   -12.41 dB      5:49 03-There Where He Lives In Me
DR10      -0.59 dB   -13.84 dB      3:58 04-Love Song
DR10      -0.56 dB   -13.45 dB      6:05 05-You Won't Forget Me
DR11      -1.15 dB   -14.50 dB      4:33 06-Sunset In The Blue
DR9       -0.03 dB   -11.78 dB      4:06 07-Um Beijo
DR9       -0.01 dB    -9.84 dB      3:38 08-Ninguém, Ninguém
DR9        0.00 dB   -12.06 dB      4:47 09-From Paris With Love (Single Version)
DR9        0.00 dB   -12.31 dB      4:28 10-Ave Maria
DR10      -0.73 dB   -14.22 dB      3:48 11-Moon River
DR11      -2.25 dB   -16.80 dB      3:10 12-I Fall In Love Too Easily
--------------------------------------------------------------------------------

Number of tracks:  13
Official DR value: DR10

Samplerate:        96000 Hz
Channels:          2
Bits per sample:   24
Bitrate:           2675 kbps
Codec:             FLAC
================================================================================
No seeders - write personal message to M0p94ok. Any questions - support@pro-jazz.com.
Нет сидеров - пишите в личку M0p94ok. Есть вопросы - support@pro-jazz.com
16:17
193
Нет комментариев. Ваш будет первым!