Поиск

2015 VA - Introducing M-Base - Brooklyn In The 1980's (Jubilee Edition) {Winter & Winter} [24-44,1]

2015 VA - Introducing M-Base - Brooklyn In The 1980's (Jubilee Edition) {Winter & Winter} [24-44,1]
Стили:
Дата издания диска:
10 апреля 2015
Носитель:
WEB
Формат:
PCM
Тип рипа:
tracks+.cue
Контейнер:
APE (*.ape)
Количество каналов:
2.0
Разрядность/ЧД:
24/44,1
Битрейт аудио:
lossless
Время звучания:
01:84:14
Наличие сканов:
web
Наличие водяных знаков:
нет
Страна-производитель диска (релиза):
USA
Релизёр (источник):
M0p94ok

Треклист:

01. If You Only Know How  05:06
02. Irate Blues  04:22
03. Blue in Green  04:10
04. Chelsea Bridge  05:38
05. Drifter  05:08
06. For John Malachi  03:33
07. I'm Going Home  03:01
08. Lies  03:48
09. Mindgames  05:30
10. Micro-Move - Strata Institute  04:19
11. On This  05:11
12. Cüd Ba-Rith  05:02
13. The Night Before  05:03
14. I Am Waiting  03:40
15. Electromagnolia  04:43

Лог проверки качества
foobar2000 1.5.5 / Dynamic Range Meter 1.1.1
log date: 2020-11-28 14:18:58

--------------------------------------------------------------------------------
Analyzed: Cassandra Wilson / Introducing M-Base - Brooklyn In The 1980's (Jubilee Edition) (1-5)
          Gary Thomas / Introducing M-Base - Brooklyn In The 1980's (Jubilee Edition) (6)
          Geri Allen / Introducing M-Base - Brooklyn In The 1980's (Jubilee Edition) (7)
          Greg Osby / Introducing M-Base - Brooklyn In The 1980's (Jubilee Edition) (8)
          Jean Paul Bourelly / Introducing M-Base - Brooklyn In The 1980's (Jubilee Edition) (9)
          Robin Eubanks / Introducing M-Base - Brooklyn In The 1980's (Jubilee Edition) (10)
          Steve Coleman / Introducing M-Base - Brooklyn In The 1980's (Jubilee Edition) (11-14)
          Strata Institute / Introducing M-Base - Brooklyn In The 1980's (Jubilee Edition) (15)
--------------------------------------------------------------------------------

DR         Peak         RMS     Duration Track
--------------------------------------------------------------------------------
DR9       -0.40 dB   -11.38 dB      5:07 01-If You Only Know How
DR11      -0.40 dB   -14.66 dB      4:11 03-Blue in Green
DR12      -0.54 dB   -14.90 dB      3:48 08-Lies
DR10      -0.40 dB   -12.99 dB      3:40 14-I Am Waiting
DR12      -0.40 dB   -14.13 dB      4:44 15-Electromagnolia
DR12      -0.40 dB   -15.54 dB      5:38 04-Chelsea Bridge
DR12      -1.12 dB   -16.21 dB      3:34 06-For John Malachi
DR10      -0.40 dB   -11.99 dB      5:30 09-Mindgames
DR9       -0.40 dB   -11.60 dB      5:08 05-Drifter
DR9       -0.40 dB   -11.23 dB      5:04 13-The Night Before
DR10      -0.40 dB   -11.82 dB      4:23 02-Irate Blues
DR11      -0.40 dB   -12.79 dB      3:02 07-I'm Going Home
DR13      -0.40 dB   -15.21 dB      5:12 11-On This
DR9       -0.40 dB   -11.76 dB      5:02 12-Cüd Ba-Rith
DR14      -0.40 dB   -15.66 dB      4:20 10-Micro-Move
--------------------------------------------------------------------------------

Number of tracks:  15
Official DR value: DR11

Samplerate:        44100 Hz
Channels:          2
Bits per sample:   24
Bitrate:           1510 kbps
Codec:             FLAC
================================================================================
Приватный:
Нет (DHT включён)
Размер:
754.10 Мб (790,730,138 байт) » файлов: 17
Участники:
2 раздают, 0 качают (2 участников всего)
Внешние участники:
--- [ Обновить ]
For power users only: no seeders - write to support@pro-jazz.com. Для power user: нет сидеров - пишите на support@pro-jazz.com.
16:00
83
Нет комментариев. Ваш будет первым!