Поиск

2018 The Mount Vernon Ensemble - The Music Of Cleopatra On The Nile {MVM 102} [24-44,1]

2018 The Mount Vernon Ensemble - The Music Of Cleopatra On The Nile {MVM 102} [24-44,1]
Дата издания диска:
1 января 2018
Номер по каталогу:
MVM 102
Носитель:
WEB
Формат:
PCM
Тип рипа:
tracks+.cue
Контейнер:
APE (*.ape)
Количество каналов:
2.0
Разрядность/ЧД:
24/44,1
Битрейт аудио:
lossless
Время звучания:
00:37:25
Наличие сканов:
web
Релизёр (источник):
M0p94ok
Лог проверки качества
foobar2000 1.5.5 / Dynamic Range Meter 1.1.1
log date: 2020-11-27 23:45:22

--------------------------------------------------------------------------------
Analyzed: The Mount Vernon Ensemble / The Music Of Cleopatra On The NIle
--------------------------------------------------------------------------------

DR         Peak         RMS     Duration Track
--------------------------------------------------------------------------------
DR14      -1.79 dB   -18.62 dB      2:44 01-Love Barge
DR12      -1.27 dB   -18.25 dB      3:56 02-Egyptian Moon
DR11      -2.10 dB   -18.01 dB      2:42 03-Oasis
DR11      -7.65 dB   -23.45 dB      4:02 04-Dance OF The Perfumed Veils
DR13      -3.87 dB   -20.15 dB      4:46 05-Exotica
DR12      -1.40 dB   -18.56 dB      5:05 06-The Nile
DR13      -2.70 dB   -20.67 dB      2:34 07-Palm Rendezvous
DR12      -2.30 dB   -19.22 dB      3:32 08-Passionata
DR12      -3.88 dB   -19.56 dB      4:14 09-Song Of The Pyramids
DR13      -3.13 dB   -20.50 dB      3:50 10-Cleo's Dream
--------------------------------------------------------------------------------

Number of tracks:  10
Official DR value: DR12

Samplerate:        44100 Hz
Channels:          2
Bits per sample:   24
Bitrate:           1467 kbps
Codec:             FLAC
================================================================================
No seeders - write personal message to M0p94ok. Any questions - support@pro-jazz.com.
Нет сидеров - пишите в личку M0p94ok. Есть вопросы - support@pro-jazz.com
01:04
194
Нет комментариев. Ваш будет первым!