Поиск

2019 Andreas Gunther & Gabriele Meirano - Branches {Hitthegrand Music} [24-44,1]

2019 Andreas Gunther & Gabriele Meirano - Branches {Hitthegrand Music} [24-44,1]
Носитель:
WEB
Формат:
PCM
Тип рипа:
tracks+.cue
Контейнер:
APE (*.ape)
Количество каналов:
2.0
Разрядность/ЧД:
24/44,1
Битрейт аудио:
lossless
Время звучания:
00:33:16
Наличие сканов:
web
Наличие водяных знаков:
нет
Релизёр (источник):
M0p94ok
Треклист:

01. Coloured Minds (03:21)
02. Balcony Raindance (01:44)
03. Open Cagegate (02:45)
04. Sentimental Ticketcounter (05:15)
05. Clap Trap (03:46)
06. Walking and Talking (02:46)
07. Crab Sandwich (06:58)
08. That Feeling (03:03)
09. Marbles (02:39)
10. Dirty Standard (00:59)

Лог проверки качества
foobar2000 1.3.16 / Dynamic Range Meter 1.1.1
log date: 2019-03-28 03:27:05

--------------------------------------------------------------------------------
Analyzed: Andreas Gunther / Branches
--------------------------------------------------------------------------------

DR         Peak         RMS     Duration Track
--------------------------------------------------------------------------------
DR13      -0.10 dB   -16.70 dB      3:21 01-Coloured Minds
DR12      -0.10 dB   -18.55 dB      1:44 02-Balcony Raindance
DR11      -0.10 dB   -13.99 dB      2:45 03-Open Cagegate
DR14      -0.10 dB   -18.37 dB      5:15 04-Sentimental Ticketcounter
DR13      -0.10 dB   -19.05 dB      3:46 05-Clap Trap
DR12      -0.10 dB   -14.64 dB      2:47 06-Walking and Talking
DR13      -0.10 dB   -16.68 dB      6:59 07-Crab Sandwich
DR12      -0.10 dB   -17.09 dB      3:03 08-That Feeling
DR12      -0.10 dB   -16.80 dB      2:39 09-Marbles
DR13      -0.10 dB   -17.90 dB      1:00 10-Dirty Standard
--------------------------------------------------------------------------------

Number of tracks:  10
Official DR value: DR12

Samplerate:        44100 Hz
Channels:          2
Bits per sample:   24
Bitrate:           1179 kbps
Codec:             FLAC
================================================================================
Приватный:
Нет (DHT включён)
Размер:
326.08 Мб (341,920,199 байт) » файлов: 12
Участники:
2 раздают, 0 качают (2 участников всего)
Внешние участники:
--- [ Обновить ]
No seeders - write personal message to M0p94ok. Нет сидеров - пишите в личку M0p94ok.
21:03
139
Нет комментариев. Ваш будет первым!