Поиск

1965 The Ralph Sharon Trio - Do I Hear A Waltz (2015) {Columbia, Legacy} [24-96]

1965 The Ralph Sharon Trio - Do I Hear A Waltz (2015) {Columbia, Legacy} [24-96]
Дата переиздания диска:
13 ноября 2015
Издатель (лейбл):
Носитель:
WEB
Формат:
PCM
Тип рипа:
tracks+.cue
Контейнер:
APE (*.ape)
Количество каналов:
2.0
Разрядность/ЧД:
24/96
Битрейт аудио:
lossless
Время звучания:
00:32:49
Наличие сканов:
web
Страна-производитель диска (релиза):
USA
Релизёр (источник):
M0p94ok
Лог проверки качества
foobar2000 1.3.16 / Dynamic Range Meter 1.1.1
log date: 2019-03-27 22:35:29

--------------------------------------------------------------------------------
Analyzed: The Ralph Sharon Trio / Do I Hear A Waltz?
--------------------------------------------------------------------------------

DR         Peak         RMS     Duration Track
--------------------------------------------------------------------------------
DR12      -3.10 dB   -18.15 dB      1:56 01-Do I Hear a Waltz?
DR12      -1.20 dB   -16.91 dB      2:04 02-Here We Are Again
DR11      -2.35 dB   -17.66 dB      4:11 03-Moon in My Window
DR10      -2.15 dB   -17.27 dB      4:02 04-A Perfectly Lovely Couple
DR11      -3.28 dB   -16.67 dB      2:15 05-Thinking
DR13      -1.89 dB   -18.96 dB      2:47 06-What Do We Do? We Fly!
DR12      -0.84 dB   -16.89 dB      2:32 07-Take the Moment
DR12      -1.71 dB   -17.21 dB      2:39 08-Stay
DR12      -2.26 dB   -17.21 dB      3:07 09-Someone Like You
DR12      -2.50 dB   -17.80 dB      2:07 10-Thank You so Much
DR13      -0.61 dB   -18.20 dB      2:36 11-No Understand
DR10      -0.23 dB   -15.01 dB      2:39 12-Finale: Take the Moment / A Perfectly Lovely Couple / Do I Hear a Waltz?
--------------------------------------------------------------------------------

Number of tracks:  12
Official DR value: DR12

Samplerate:        96000 Hz
Channels:          2
Bits per sample:   24
Bitrate:           2834 kbps
Codec:             FLAC
================================================================================
No seeders - write personal message to M0p94ok. Any questions - support@pro-jazz.com.
Нет сидеров - пишите в личку M0p94ok. Есть вопросы - support@pro-jazz.com
19:29
237
Нет комментариев. Ваш будет первым!