Поиск

1959 Quincy Jones & The Band - All that Jazz, Vol. 128 Ghana (2020) {Jube Legends} [24-48]

1959 Quincy Jones & The Band - All that Jazz, Vol. 128 Ghana (2020) {Jube Legends} [24-48]
Стили:
Дата записи диска:
1 января 1959
Дата издания диска:
7 августа 2020
Битрейт аудио:
lossless

Треклист:

01 - Lester Leaps in 03:32
02 - Ghana 04:33
03 - Walkin' 10:46
04 - Cherokee 03:07
05 - Eesom 05:02
06 - Sermonette 05:59
07 - Caravan 03:26
08 - Everybody's Blues 04:11
09 - Boo's Bloos 05:14
10 - Chant of the Weed 03:10
11 - Maybe 04:43
12 - They Say It's Wonderful 03:19
13 - Stockholm Sweetnin' 05:42
14 - Snowflakes 02:58
15 - Evening in Paris 04:07
16 - Air Mail Special 02:31

Доп. инфо:

Формат записи/Источник записи: [TR24][OF]
Издание: Remastered
Год издания/переиздания диска: 1959/2020
Издатель (лейбл): Jube Legends
Продолжительность: 01:12:20
Наличие сканов в содержимом раздачи: Нет

Контейнер: FLAC (*.flac)
Тип рипа: tracks
Разрядность: 24/48
Количество каналов: 2.0

Источник (релизер): Qobuz

Лог проверки качества
foobar2000 1.3.16 / Dynamic Range Meter 1.1.1
log date: 2020-08-17 18:44:18

--------------------------------------------------------------------------------
Analyzed: Quincy Jones / All that Jazz, Vol. 128: Quincy Jones - "Ghana" (2020 Remaster)
--------------------------------------------------------------------------------

DR         Peak         RMS     Duration Track
--------------------------------------------------------------------------------
DR11       0.00 dB   -14.50 dB      3:32 01-Lester Leaps in
DR11       0.00 dB   -16.60 dB      4:34 02-Ghana
DR13       0.00 dB   -17.03 dB     10:46 03-Walkin'
DR12       0.00 dB   -14.97 dB      3:08 04-Cherokee
DR13       0.00 dB   -17.02 dB      5:02 05-Eesom
DR14       0.00 dB   -17.56 dB      6:00 06-Sermonette
DR13       0.00 dB   -16.08 dB      3:27 07-Caravan
DR13       0.00 dB   -16.84 dB      4:11 08-Everybody's Blues
DR12       0.00 dB   -15.67 dB      5:14 09-Boo's Bloos
DR12       0.00 dB   -15.31 dB      3:11 10-Chant of the Weed
DR14       0.00 dB   -17.54 dB      4:43 11-Maybe
DR13       0.00 dB   -18.02 dB      3:20 12-They Say It's Wonderful
DR11       0.00 dB   -14.97 dB      5:43 13-Stockholm Sweetnin'
DR14       0.00 dB   -17.40 dB      2:59 14-Snowflakes
DR13       0.00 dB   -16.33 dB      4:08 15-Evening in Paris
DR12       0.00 dB   -14.58 dB      2:32 16-Air Mail Special
--------------------------------------------------------------------------------

Number of tracks:  16
Official DR value: DR12

Samplerate:        48000 Hz
Channels:          2
Bits per sample:   24
Bitrate:           1688 kbps
Codec:             FLAC
================================================================================
Приватный:
Нет (DHT включён)
Размер:
607.57 Мб (637,087,994 байт) » файлов: 21
Участники:
0 раздают, 0 качают (0 участников всего)
Внешние участники:
27 раздают, 3 качают (30 участников всего) [ Обновить ]
No seeders - write a personal message to user M0p94ok. Нет сидеров - пишите личное сообщение пользователю M0p94ok.
23:14
22
Нет комментариев. Ваш будет первым!