Поиск

2015 Robertinho De Paula - The Seed of Love - Jazz Guitar Brazilian Style {GBMUSIC} [24-96]

2015 Robertinho De Paula - The Seed of Love - Jazz Guitar Brazilian Style {GBMUSIC} [24-96]
Носитель:
WEB
Формат:
PCM
Тип рипа:
tracks
Количество каналов:
2.0
Разрядность/ЧД:
24/96
Битрейт аудио:
lossless
Время звучания:
01:15:46
Наличие сканов:
только обложка
Наличие водяных знаков:
нет
Страна-производитель диска (релиза):
Brazil
Релизёр (источник):
M0p94ok

Треклист:

01. Cherokee  04:56
02. Do It Again  03:51
03. Every Little Thing She Does Is Magic  04:52
04. Message in a Bottle  04:49
05. Overjoyed  05:30
06. Pale Shelter  04:18
07. Polo Pony  03:55
08. Round Midnight  06:34
09. Satin Doll  04:24
10. Nada Sera Como Antes  06:25
11. Tatuagem  03:30
12. Tenderly  05:45
13. The Killing Moon  04:57
14. Sowing the Seeds of Love  05:51
15. Too Late Marlene  06:05

Лог проверки качества
foobar2000 1.3.16 / Dynamic Range Meter 1.1.1
log date: 2019-03-25 23:47:11

--------------------------------------------------------------------------------
Analyzed: Robertinho De Paula / The Seed of Love: Jazz Guitar Brazilian Style
--------------------------------------------------------------------------------

DR         Peak         RMS     Duration Track
--------------------------------------------------------------------------------
DR11      -1.18 dB   -14.06 dB      4:58 01-Cherokee
DR11      -0.95 dB   -14.03 dB      3:52 02-Do it Again
DR11      -0.60 dB   -14.81 dB      4:54 03-Every Little Thing She Does is Magic
DR11      -0.53 dB   -14.57 dB      4:50 04-Message in a Bottle
DR10      -0.10 dB   -11.49 dB      5:31 05-Overjoyed
DR10      -2.11 dB   -15.32 dB      4:19 06-Pale Shelter
DR10      -0.10 dB   -11.49 dB      3:53 07-Polo Pony
DR11      -1.66 dB   -16.01 dB      6:35 08-Round Midnight
DR11      -0.93 dB   -14.11 dB      4:25 09-Satin Doll
DR9       -0.10 dB   -10.05 dB      6:25 10-Nada Serà Como Antes
DR10      -0.10 dB   -11.21 dB      3:29 11-Tatuagem
DR12      -0.66 dB   -16.78 dB      5:47 12-Tenderly
DR12      -0.10 dB   -14.14 dB      4:58 13-The Killing Moon
DR10      -0.10 dB   -11.53 dB      5:55 14-Sowing the Seeds of Love
DR11      -0.91 dB   -14.56 dB      6:06 15-Too Late Marlene
--------------------------------------------------------------------------------

Number of tracks:  15
Official DR value: DR11

Samplerate:        96000 Hz
Channels:          2
Bits per sample:   24
Bitrate:           2335 kbps
Codec:             FLAC
================================================================================
Приватный:
Да (DHT отключён)
Размер:
1.32 Гб (1,412,329,630 байт) » файлов: 17
Участники:
1 раздают, 0 качают (1 участников всего)
Внешние участники:
--- [ Обновить ]
No seeders - write a personal message to user M0p94ok. Нет сидеров - пишите личное сообщение пользователю M0p94ok.
22:37
31
Нет комментариев. Ваш будет первым!