Поиск

2020 Peggy Lee - Rendezvous With Peggy Lee {RevOla} [24-44,1]

2020 Peggy Lee - Rendezvous With Peggy Lee {RevOla} [24-44,1]
Стили:
Издатель (лейбл):
Битрейт аудио:
lossless

Треклист:

01 - I Can't Give You Anything But Love 02:35
02 - Why Don't You Do Right? 02:27
03 - Stormy Weather 03:09
04 - Them There Eyes 02:59
05 - 'Deed I Do! 03:02
06 - Don't Smoke In Bed 03:09
07 - There'll Be Some Changes Made 03:08
08 - A Nightingale Can Sing The Blues 03:12
09 - Everything's Moving Too Fast 03:00
10 - It's Lovin' Time 02:48
11 - Swing Low, Sweet Chariot 02:23
12 - Linger In My Arms A Little Longer, Baby 03:07
13 - Laroo Laroo, Lili Balero 02:33
14 - Aren't You Kind Of Glad We Did? 02:58
15 - Caramba! It's The Samba! 02:46
16 - Bubble-Loo, Bubble-Loo 03:00
17 - It's All Over Now 03:00
18 - Please Love Me Tonight 02:55
19 - Riders In The Sky (A Cowboy Legend) 02:41
20 - Love, Your Spell Is Everywhere 03:11
21 - She Didn't Say Yes 02:47
22 - I'll Dance At Your Wedding 03:00
23 - Golden Earrings 02:58
24 - Everybody Loves Somebody 03:13
25 - It Takes A Long Train With A Red Caboose 03:06
26 - Just An Old Love Of Mine 03:14

Доп. инфо:

Формат записи/Источник записи: [TR24][OF]
Издание: Remastered
Год издания/переиздания диска: 2020
Продолжительность: 01:16:21
Наличие сканов в содержимом раздачи: Нет

Контейнер: FLAC (*.flac)
Тип рипа: tracks
Разрядность: 24/44,1
Количество каналов: 2.0

Источник (релизер): Qobuz

Лог проверки качества
foobar2000 1.3.16 / Dynamic Range Meter 1.1.1
log date: 2020-08-17 20:23:12

--------------------------------------------------------------------------------
Analyzed: Peggy Lee / Rendezvous With Peggy Lee
--------------------------------------------------------------------------------

DR         Peak         RMS     Duration Track
--------------------------------------------------------------------------------
DR11      -8.69 dB   -22.82 dB      2:36 01-I Can't Give You Anything But Love (Remastered)
DR12      -8.01 dB   -22.67 dB      2:28 02-Why Don't You Do Right? (Remastered)
DR12      -7.41 dB   -22.78 dB      3:09 03-Stormy Weather (Remastered)
DR14      -6.59 dB   -23.70 dB      3:00 04-Them There Eyes (Remastered)
DR10      -7.83 dB   -20.55 dB      3:02 05-'Deed I Do! (Remastered)
DR11      -8.17 dB   -23.52 dB      3:10 06-Don't Smoke In Bed (Remastered)
DR13      -5.34 dB   -21.37 dB      3:09 07-There'll Be Some Changes Made (Remastered)
DR14      -8.92 dB   -25.39 dB      3:13 08-A Nightingale Can Sing The Blues (Remastered)
DR14      -5.11 dB   -22.76 dB      3:01 09-Everything's Moving Too Fast (Remastered)
DR12      -8.05 dB   -23.25 dB      2:48 10-It's Lovin' Time (Remastered)
DR15      -4.97 dB   -23.57 dB      2:23 11-Swing Low, Sweet Chariot (Remastered)
DR10     -11.01 dB   -24.30 dB      3:07 12-Linger In My Arms A Little Longer, Baby (Remastered)
DR13      -6.34 dB   -21.78 dB      2:33 13-Laroo Laroo, Lili Balero (Remastered)
DR13      -9.96 dB   -25.57 dB      2:59 14-Aren't You Kind Of Glad We Did? (Remastered)
DR15      -5.12 dB   -22.62 dB      2:46 15-Caramba! It's The Samba! (Remastered)
DR12      -8.42 dB   -24.62 dB      3:01 16-Bubble-Loo, Bubble-Loo (Remastered)
DR13      -5.44 dB   -21.42 dB      3:01 17-It's All Over Now (Remastered)
DR12      -7.52 dB   -22.98 dB      2:56 18-Please Love Me Tonight (Remastered)
DR11      -9.15 dB   -22.75 dB      2:41 19-Riders In The Sky (A Cowboy Legend) (Remastered)
DR12      -6.03 dB   -22.26 dB      3:11 20-Love, Your Spell Is Everywhere (Remastered)
DR10     -10.30 dB   -22.98 dB      2:48 21-She Didn't Say Yes (Remastered)
DR14      -5.29 dB   -22.47 dB      3:00 22-I'll Dance At Your Wedding (Remastered)
DR11      -8.03 dB   -23.50 dB      2:59 23-Golden Earrings (Remastered)
DR12     -11.80 dB   -27.44 dB      3:14 24-Everybody Loves Somebody (Remastered)
DR13      -5.98 dB   -22.04 dB      3:07 25-It Takes A Long Train With A Red Caboose (Remastered)
DR14      -8.83 dB   -27.57 dB      3:14 26-Just An Old Love Of Mine (Remastered)
--------------------------------------------------------------------------------

Number of tracks:  26
Official DR value: DR12

Samplerate:        44100 Hz
Channels:          2
Bits per sample:   24
Bitrate:           1084 kbps
Codec:             FLAC
================================================================================
Приватный:
Нет (DHT включён)
Размер:
651.40 Мб (683,044,606 байт) » файлов: 31
Участники:
0 раздают, 0 качают (0 участников всего)
Внешние участники:
22 раздают, 2 качают (24 участников всего) [ Обновить ]
No seeders - write a personal message to user M0p94ok. Нет сидеров - пишите личное сообщение пользователю M0p94ok.
20:50
15
Нет комментариев. Ваш будет первым!