Поиск

1956 Richard Shores And His Orchestra - Emotions (2016) {Mercury, Trunk} [24-44,1]

1956 Richard Shores And His Orchestra - Emotions (2016) {Mercury, Trunk} [24-44,1]
Дата издания диска:
1 января 2016
Издатель (лейбл):
Носитель:
WEB
Формат:
PCM
Тип рипа:
tracks
Количество каналов:
2.0
Разрядность/ЧД:
24/44,1
Битрейт аудио:
lossless
Время звучания:
00:26:18
Наличие сканов:
только обложка
Наличие водяных знаков:
нет
Страна-производитель диска (релиза):
Canada
Релизёр (источник):
M0p94ok

Треклист:

01. Love  02:54
02. Hate  01:39
03. Sorrow  02:48
04. Gay  02:28
05. Blues  02:50
06. Surprise  02:19
07. Frustration  02:40
08. Nostalgia  03:13
09. Fear  02:28
10. Hysteria 02:59

Лог проверки качества
foobar2000 1.3.16 / Dynamic Range Meter 1.1.1
log date: 2019-03-25 23:46:43

--------------------------------------------------------------------------------
Analyzed: Richard Shores And His Orchestra / Emotions
--------------------------------------------------------------------------------

DR         Peak         RMS     Duration Track
--------------------------------------------------------------------------------
DR8       -6.75 dB   -18.71 dB      2:55 01-Love (Richard Shores And His Orchestra)
DR8       -6.44 dB   -16.18 dB      1:39 02-Hate (Richard Shores And His Orchestra)
DR8       -6.65 dB   -19.14 dB      2:49 03-Sorrow (Richard Shores And His Orchestra)
DR8       -6.60 dB   -17.61 dB      2:28 04-Gay (Richard Shores And His Orchestra)
DR8       -6.69 dB   -17.68 dB      2:50 05-Blues (Richard Shores And His Orchestra)
DR11      -4.22 dB   -19.79 dB      2:20 06-Surprise (Richard Shores And His Orchestra)
DR10      -8.08 dB   -23.35 dB      2:41 07-Frustration (Richard Shores And His Orchestra)
DR9       -9.65 dB   -22.10 dB      3:13 08-Nostalgia (Richard Shores And His Orchestra)
DR11      -8.78 dB   -25.17 dB      2:28 09-Fear (Richard Shores And His Orchestra)
DR8       -6.31 dB   -16.75 dB      3:00 10-Hysteria (Richard Shores And His Orchestra)
--------------------------------------------------------------------------------

Number of tracks:  10
Official DR value: DR9

Samplerate:        44100 Hz
Channels:          2
Bits per sample:   24
Bitrate:           1445 kbps
Codec:             FLAC
================================================================================
Приватный:
Да (DHT отключён)
Размер:
267.96 Мб (280,972,941 байт) » файлов: 12
Участники:
2 раздают, 0 качают (2 участников всего)
Внешние участники:
--- [ Обновить ]
No seeders - write a personal message to user M0p94ok. Нет сидеров - пишите личное сообщение пользователю M0p94ok.
14:19
14
Нет комментариев. Ваш будет первым!