Поиск

2016 Pierrick Pedron - And the {Jazz Village} [24-48]

2016 Pierrick Pedron - And the {Jazz Village} [24-48]
Стили:
Дата издания диска:
22 января 2016
Издатель (лейбл):
Носитель:
WEB
Формат:
PCM
Тип рипа:
tracks
Количество каналов:
2.0
Разрядность/ЧД:
24/48
Битрейт аудио:
lossless
Время звучания:
00:44:37
Наличие сканов:
буклет pdf
Наличие водяных знаков:
нет
Страна-производитель диска (релиза):
France
Релизёр (источник):
M0p94ok

Треклист:

1. Monk Ponk Train  05:22
2. Clock Road  06:12
3. Val 2  05:21
4. Elise  05:04
5. Tootoota  02:40
6. Procession  04:41
7. Val 1  06:21
8. PP Song Tree  04:42
9. Ethiop  04:10

Лог проверки качества
foobar2000 1.3.16 / Dynamic Range Meter 1.1.1
log date: 2019-03-25 16:18:46

--------------------------------------------------------------------------------
Analyzed: Pierrick Pedron / And the
--------------------------------------------------------------------------------

DR         Peak         RMS     Duration Track
--------------------------------------------------------------------------------
DR7       -0.02 dB    -8.92 dB      5:22 01-Monk Ponk Train
DR9       -0.03 dB   -10.38 dB      6:13 02-Clock Road
DR8       -0.04 dB    -9.59 dB      5:21 03-Val 2
DR7       -0.04 dB    -9.20 dB      5:05 04-Elise
DR8       -0.01 dB    -9.28 dB      2:40 05-Tootoota
DR8       -0.05 dB   -10.12 dB      4:42 06-Procession
DR8       -0.02 dB    -9.73 dB      6:22 07-Val 1
DR7       -0.05 dB    -9.72 dB      4:43 08-PP Song Tree
DR7       -0.02 dB    -8.70 dB      4:11 09-Ethiop
--------------------------------------------------------------------------------

Number of tracks:  9
Official DR value: DR8

Samplerate:        48000 Hz
Channels:          2
Bits per sample:   24
Bitrate:           1776 kbps
Codec:             FLAC
================================================================================
Приватный:
Да (DHT отключён)
Размер:
564.61 Мб (592,034,715 байт) » файлов: 12
Участники:
2 раздают, 0 качают (2 участников всего)
Внешние участники:
--- [ Обновить ]
No seeders - write a personal message to user M0p94ok. Нет сидеров - пишите личное сообщение пользователю M0p94ok.
13:42
16
Нет комментариев. Ваш будет первым!