Поиск

1965 Mongo Santamaria - El Bravo! (2015) {Columbia, Legacy} [24-96]

1965 Mongo Santamaria - El Bravo! (2015) {Columbia, Legacy} [24-96]
Дата издания диска:
1 января 1965
Издатель (лейбл):
Носитель:
WEB
Формат:
PCM
Тип рипа:
tracks
Количество каналов:
2.0
Разрядность/ЧД:
24/96
Битрейт аудио:
lossless
Время звучания:
00:42:32
Наличие сканов:
только обложка
Наличие водяных знаков:
нет
Страна-производитель диска (релиза):
USA
Релизёр (источник):
M0p94ok

Треклист:

01    El Bravo    4:24
02    Casabe    2:52
03    Miedo    5:05
04    Black Stockings    4:09
05    Monica    2:39
06    Lucky Mambo    3:36
07    Cinderella    3:48
08    La Justicia    3:33
09    Ole Guajira    4:40
10    Estrada Do Sol    4:37
11    Mantequero    3:24

Лог проверки качества
foobar2000 1.3.16 / Dynamic Range Meter 1.1.1
log date: 2019-03-26 23:41:59

--------------------------------------------------------------------------------
Analyzed: Mongo Santamaria / El Bravo !
--------------------------------------------------------------------------------

DR         Peak         RMS     Duration Track
--------------------------------------------------------------------------------
DR11      -0.03 dB   -12.97 dB      4:24 01-El Bravo
DR10      -0.03 dB   -12.97 dB      2:52 02-Casabe
DR12      -2.90 dB   -18.34 dB      5:04 03-Miedo
DR11      -0.03 dB   -13.82 dB      4:04 04-Black Stockings
DR11      -0.41 dB   -12.88 dB      2:39 05-Monica
DR12      -1.36 dB   -16.06 dB      3:36 06-Lucky Mambo
DR10      -0.03 dB   -12.16 dB      3:47 07-Cinderella
DR11      -1.34 dB   -14.15 dB      3:32 08-La Justicia
DR11      -1.27 dB   -13.29 dB      4:39 09-Ole Guajira
DR11      -2.37 dB   -16.04 dB      4:37 10-Estrada Do Sol
DR12      -0.03 dB   -14.04 dB      3:24 11-Mantequero
--------------------------------------------------------------------------------

Number of tracks:  11
Official DR value: DR11

Samplerate:        96000 Hz
Channels:          2
Bits per sample:   24
Bitrate:           3045 kbps
Codec:             FLAC
================================================================================
Приватный:
Да (DHT отключён)
Размер:
921.56 Мб (966,328,076 байт) » файлов: 13
Участники:
2 раздают, 0 качают (2 участников всего)
Внешние участники:
--- [ Обновить ]
No seeders - write a personal message to user M0p94ok. Нет сидеров - пишите личное сообщение пользователю M0p94ok.
20:48
23
Нет комментариев. Ваш будет первым!