Поиск

1961 Maysa Matarazzo - Maysa Sings Songs Before Dawn (2019) {RevOla} [24-44,1]

1961 Maysa Matarazzo - Maysa Sings Songs Before Dawn (2019) {RevOla} [24-44,1]
Стили:
Место записи:
New York City, NY, USA
Дата издания диска:
27 января 1961
Дата переиздания диска:
19 марта 2019
Издатель (лейбл):
Носитель:
WEB
Формат:
PCM
Тип рипа:
tracks
Количество каналов:
2.0
Разрядность/ЧД:
24/44,1
Битрейт аудио:
lossless
Время звучания:
00:41:59
Наличие сканов:
только обложка
Наличие водяных знаков:
нет
Страна-производитель диска (релиза):
Canada
Релизёр (источник):
M0p94ok

Треклист:

01. You Better Go Now (Remastered)  03:39
02. Something to Remember You By (Remastered)  03:16
03. The End Of a Love Affair (Remastered)  03:07
04. A Noite do Meu Bem (Remastered)  02:51
05. If I Forget You (Remastered)  03:18
06. Ne Me Quitte Pas (Remastered)  04:22
07. When Your Lover Has Gone (Remastered)  02:43
08. Mean to Me (Remastered)  03:21
09. The Man That Got Away (Remastered)  04:12
10. Autumn Leaves (Remastered)  05:07
11. I'm a Fool To Want You (Remastered)  02:38
12. La Barca (Remastered)  03:25

Доп. инфо:

Orignally issued on Columbia CS 8426

Лог проверки качества
foobar2000 1.5.5 / Dynamic Range Meter 1.1.1
log date: 2020-11-18 17:36:27

--------------------------------------------------------------------------------
Analyzed: Maysa / Sings Songs Before Dawn
--------------------------------------------------------------------------------

DR         Peak         RMS     Duration Track
--------------------------------------------------------------------------------
DR12      -4.76 dB   -21.25 dB      3:40 01-You Better Go Now
DR12      -5.15 dB   -20.89 dB      3:17 02-Something to Remember You By
DR11      -4.33 dB   -20.42 dB      3:07 03-The End Of a Love Affair
DR12      -5.73 dB   -22.30 dB      2:52 04-A Noite do Meu Bem
DR13      -5.01 dB   -22.48 dB      3:18 05-If I Forget You
DR13      -3.90 dB   -23.38 dB      4:22 06-Ne Me Quitte Pas
DR12      -7.17 dB   -23.89 dB      2:43 07-When Your Lover Has Gone
DR13      -7.19 dB   -23.69 dB      3:22 08-Mean to Me
DR10      -6.51 dB   -21.00 dB      4:13 09-The Man That Got Away
DR13      -5.70 dB   -22.91 dB      5:07 10-Autumn Leaves
DR12      -5.30 dB   -22.81 dB      2:38 11-I'm a Fool To Want You
DR12      -6.29 dB   -22.69 dB      3:26 12-La Barca
--------------------------------------------------------------------------------

Number of tracks:  12
Official DR value: DR12

Samplerate:        44100 Hz
Channels:          2
Bits per sample:   24
Bitrate:           1221 kbps
Codec:             FLAC
================================================================================
Приватный:
Да (DHT отключён)
Размер:
360.40 Мб (377,902,681 байт) » файлов: 14
Участники:
1 раздают, 0 качают (1 участников всего)
Внешние участники:
--- [ Обновить ]
No seeders - write a personal message to user M0p94ok. Нет сидеров - пишите личное сообщение пользователю M0p94ok.
18:44
13
Нет комментариев. Ваш будет первым!