Поиск

2009 Rolf Zielke - Handel Jazz {Neuklang} [24-44,1]

2009 Rolf Zielke - Handel Jazz {Neuklang} [24-44,1]
Стили:
Дата издания диска:
2 октября 2009
Издатель (лейбл):
Номер по каталогу:
NCD4040
Носитель:
WEB
Формат:
PCM
Тип рипа:
tracks
Количество каналов:
2.0
Разрядность/ЧД:
24/44,1
Битрейт аудио:
lossless
Время звучания:
00:53:39
Наличие сканов:
буклет pdf
Наличие водяных знаков:
нет
Релизёр (источник):
M0p94ok

Треклист:

01    Hallelujah    3:21
02    Solitude In Silence    6:26
03    Hornpipe    3:08
04    In The Chains Of Fate    4:54
05    Return My Heart    4:13
06    Deserted    2:36
07    Shady Tree    4:51
08    Remorse    6:56
09    Fulfilled Love    5:31
10    Scenes Of Horror    5:43
11    Just One Kiss    6:00

Лог проверки качества
foobar2000 1.3.16 / Dynamic Range Meter 1.1.1
log date: 2019-03-25 16:18:54

--------------------------------------------------------------------------------
Analyzed: Rolf Zielke / Handel Jazz
--------------------------------------------------------------------------------

DR         Peak         RMS     Duration Track
--------------------------------------------------------------------------------
DR11      -0.33 dB   -13.00 dB      3:22 01-Hallelujah
DR13      -0.26 dB   -15.65 dB      6:26 02-Solitude in Silence
DR12      -0.19 dB   -13.67 dB      3:08 03-Hornpipe
DR9       -0.30 dB   -12.29 dB      4:55 04-In the Chains of Fate
DR10      -0.26 dB   -11.37 dB      4:13 05-Return My Heart
DR8       -5.08 dB   -17.92 dB      2:36 06-Deserted
DR13      -0.23 dB   -17.46 dB      4:51 07-Shady Tree
DR10      -0.29 dB   -12.55 dB      6:57 08-Remorse
DR11      -0.29 dB   -14.07 dB      5:31 09-Fulfilled Love
DR11      -0.20 dB   -12.39 dB      5:43 10-Scenes of Horror
DR13      -0.04 dB   -15.91 dB      6:01 11-Just One Kiss
--------------------------------------------------------------------------------

Number of tracks:  11
Official DR value: DR11

Samplerate:        44100 Hz
Channels:          2
Bits per sample:   24
Bitrate:           1448 kbps
Codec:             FLAC
================================================================================
Приватный:
Да (DHT отключён)
Размер:
573.04 Мб (600,881,109 байт) » файлов: 14
Участники:
1 раздают, 0 качают (1 участников всего)
Внешние участники:
--- [ Обновить ]
No seeders - write a personal message to user M0p94ok. Нет сидеров - пишите личное сообщение пользователю M0p94ok.
18:21
16
Нет комментариев. Ваш будет первым!