Поиск

2018 Florian Favre Trio - On a Smiling Gust of Wind {Traumton} [24-44,1]

2018 Florian Favre Trio - On a Smiling Gust of Wind {Traumton} [24-44,1]
Дата издания диска:
2 марта 2018
Битрейт аудио:
lossless

Florian Favre Trio

Треклист:

01 Nanomélie 05:38
02 Frunky 06:19
03 Galamb 06:03
04 Manu 05:10
05 She Just Is 05:46
06 Strange Picture 07:24
07 Through the Blizzard 06:48
08 Flagile 07:08

Доп. инфо:

Формат записи/Источник записи: [TR24][OF]
Наличие водяных знаков: Нет
Год издания/переиздания диска: 2018
Издатель (лейбл): Traumton
Продолжительность: 00:50:20
Наличие сканов в содержимом раздачи: Только обложка альбома
Источник (релизер): qobuz

Контейнер: FLAC (*.flac)
Тип рипа: tracks
Разрядность: 24/44,1
Формат: PCM
Количество каналов: 2.0

Лог проверки качества
foobar2000 1.5.1 / Dynamic Range Meter 1.1.1
log date: 2020-04-18 19:10:43

--------------------------------------------------------------------------------
Analyzed: Florian Favre Trio / On a Smiling Gust of Wind
--------------------------------------------------------------------------------

DR         Peak         RMS     Duration Track
--------------------------------------------------------------------------------
DR11      -0.20 dB   -13.45 dB      5:38 01-Nanomélie
DR9       -0.20 dB   -11.40 dB      6:20 02-Frunky
DR10      -0.20 dB   -12.78 dB      6:04 03-Galamb
DR10      -0.20 dB   -12.46 dB      5:10 04-Manu
DR12      -0.20 dB   -14.84 dB      5:47 05-She Just Is
DR10      -0.20 dB   -11.56 dB      7:25 06-Strange Picture
DR9       -0.20 dB   -11.45 dB      6:49 07-Through the Blizzard
DR10      -0.20 dB   -13.34 dB      7:08 08-Flagile
--------------------------------------------------------------------------------

Number of tracks:  8
Official DR value: DR10

Samplerate:        44100 Hz
Channels:          2
Bits per sample:   24
Bitrate:           1425 kbps
Codec:             FLAC
================================================================================
Приватный:
Нет (DHT включён)
Размер:
538.84 Мб (565,019,213 байт) » файлов: 11
Участники:
0 раздают, 0 качают (0 участников всего)
Внешние участники:
16 раздают, 2 качают (18 участников всего) [ Обновить ]
No seeders - write a personal message to user M0p94ok. Нет сидеров - пишите личное сообщение пользователю M0p94ok.
01:45
28
Нет комментариев. Ваш будет первым!