Поиск

1965 Mongo Santamaria - El Pussy Cat (2015) {Columbia, Legacy} [24-96]

1965 Mongo Santamaria - El Pussy Cat (2015) {Columbia, Legacy} [24-96]
Дата издания диска:
1965
Дата переиздания диска:
29 мая 2015
Издатель (лейбл):
Носитель:
WEB
Формат:
PCM
Тип рипа:
tracks
Количество каналов:
2.0
Разрядность/ЧД:
24/96
Битрейт аудио:
lossless
Время звучания:
00:43:56
Наличие сканов:
только обложка
Наличие водяных знаков:
нет
Страна-производитель диска (релиза):
USA
Релизёр (источник):
M0p94ok

Треклист:

01. El Pussy Cat  02:43
02. Afro Lypso  05:30
03. Ah Ha  02:39
04. Together  06:49
05. Ritmo Negro  04:47
06. La Gitana  07:36
07. Cuidado  03:53
08. Sarai  03:31
09. Hammer Head  03:18
10. Black-Eyed Peas  03:13

Лог проверки качества
foobar2000 1.3.16 / Dynamic Range Meter 1.1.1
log date: 2019-03-26 23:42:17

--------------------------------------------------------------------------------
Analyzed: Mongo Santamaria / El Pussy Cat
--------------------------------------------------------------------------------

DR         Peak         RMS     Duration Track
--------------------------------------------------------------------------------
DR12      -1.44 dB   -16.26 dB      2:43 01-El Pussy Cat
DR12      -0.03 dB   -15.00 dB      5:30 02-Afro Lypso
DR11      -0.03 dB   -13.41 dB      2:39 03-Ah Ha
DR11      -0.03 dB   -13.70 dB      6:49 04-Together
DR12      -0.03 dB   -15.16 dB      4:47 05-Ritmo Negro
DR11      -0.52 dB   -13.57 dB      7:36 06-La Gitana
DR10      -0.31 dB   -13.28 dB      3:53 07-Cuidado
DR13      -2.28 dB   -18.28 dB      3:31 08-Sarai
DR11      -0.06 dB   -14.19 dB      3:17 09-Hammer Head
DR11      -2.04 dB   -14.84 dB      3:13 10-Black-Eyed Peas
--------------------------------------------------------------------------------

Number of tracks:  10
Official DR value: DR11

Samplerate:        96000 Hz
Channels:          2
Bits per sample:   24
Bitrate:           3006 kbps
Codec:             FLAC
================================================================================
Приватный:
Да (DHT отключён)
Размер:
942.14 Мб (987,910,096 байт) » файлов: 12
Участники:
0 раздают, 0 качают (0 участников всего)
Внешние участники:
--- [ Обновить ]
No seeders - write a personal message to user M0p94ok. Нет сидеров - пишите личное сообщение пользователю M0p94ok.
10:54
18
Нет комментариев. Ваш будет первым!