Поиск

2015 VA - Michel Legrand & Ses Amis {Smart} [24-48]

2015 VA - Michel Legrand & Ses Amis {Smart} [24-48]
Стили:
Дата издания диска:
27 ноября 2015
Битрейт аудио:
lossless

Треклист:

01. Un parfum de fin du monde - Vincent Niclo (3:24)
02. Paris violon - Muriel Robin (2:42)
03. Alcatraz - Thomas Dutronc (3:33)
04. L'adieu - Maurane (4:15)
05. Les moulins de mon coeur - Charles Aznavour (5:04)
06. La valse des lilas - Hélène Ségara (5:31)
07. Ça va, ça va - Laurent Gerra (2:38)
08. Et si demain - Mario Pelchat et Emilie-Claire Barlow (3:19)
09. La chanson des jumelles - Brigitte (3:23)
10. La chanson de Maxence - Lambert Wilson (3:37)
11. On va chez toi ou on va chez moi - Christophe Willem (3:38)
12. Nous voyageons de ville en ville - Chico & The Gypsies (2:17)
13. Quand tu reviendras - Michel Legrand (4:49)

Доп. инфо:

Формат записи/Источник записи: [TR24][OF]
Наличие водяных знаков: Нет
Год издания/переиздания диска: 2017
Издатель (лейбл): SMART
Продолжительность: 48:09
Наличие сканов в содержимом раздачи: Только обложка альбома

Контейнер: FLAC (*.flac)
Тип рипа: tracks
Разрядность: 24/48
Формат: PCM
Количество каналов: 2.0

Источник: i-classical.com

Лог проверки качества
foobar2000 1.3.9 / Dynamic Range Meter 1.1.1
log date: 2017-12-14 16:58:48

--------------------------------------------------------------------------------
Analyzed: Brigitte / Michel Legrand & ses amis (1)
          Charles Aznavour / Michel Legrand & ses amis (2)
          Chico & The Gypsies / Michel Legrand & ses amis (3)
          Christophe Willem / Michel Legrand & ses amis (4)
          Hélène Ségara / Michel Legrand & ses amis (5)
          Lambert Wilson / Michel Legrand & ses amis (6)
          Laurent Gerra / Michel Legrand & ses amis (7)
          Mario Pelchat et Emilie-Claire Barlow / Michel Legrand & ses amis (8)
          Maurane / Michel Legrand & ses amis (9)
          Michel Legrand / Michel Legrand & ses amis (10)
          Muriel Robin / Michel Legrand & ses amis (11)
          Thomas Dutronc / Michel Legrand & ses amis (12)
          Vincent Niclo / Michel Legrand & ses amis (13)
--------------------------------------------------------------------------------

DR         Peak         RMS     Duration Track
--------------------------------------------------------------------------------
DR9       -0.60 dB   -10.86 dB      3:23 09-La chanson des jumelles
DR8       -1.10 dB   -11.84 dB      5:04 05-Les moulins de mon coeur
DR8       -0.60 dB   -10.19 dB      2:17 12-Nous voyageons de ville en ville
DR10      -0.60 dB   -12.95 dB      3:38 11-On va chez toi ou on va chez moi
DR11      -0.10 dB   -15.02 dB      5:31 06-La valse des lilas
DR10      -0.60 dB   -13.02 dB      3:37 10-La chanson de Maxence
DR13      -0.10 dB   -14.93 dB      2:38 07-Ça va, ça va
DR9       -0.10 dB   -12.48 dB      3:19 08-Et si demain
DR11      -0.10 dB   -14.08 dB      4:15 04-L'adieu
DR11      -0.10 dB   -13.12 dB      4:49 13-Quand tu reviendras
DR9       -1.10 dB   -12.11 dB      2:42 02-Paris violon
DR9       -0.10 dB   -11.25 dB      3:33 03-Alcatraz
DR9       -0.10 dB   -10.35 dB      3:24 01-Un parfum de fin du monde
--------------------------------------------------------------------------------

Number of tracks:  13
Official DR value: DR10

Samplerate:        48000 Hz
Channels:          2
Bits per sample:   24
Bitrate:           1581 kbps
Codec:             FLAC
================================================================================
Приватный:
Нет (DHT включён)
Размер:
571.61 Мб (599,371,738 байт) » файлов: 16
Участники:
1 раздают, 0 качают (1 участников всего)
Внешние участники:
--- [ Обновить ]
No seeders - write personal message to M0p94ok. Any questions - support@pro-jazz.com.
Нет сидеров - пишите в личку M0p94ok. Есть вопросы - support@pro-jazz.com
15:15
530
Нет комментариев. Ваш будет первым!