Поиск

2017 Nataša Mirković with Michel Godard & Jarrod Cagwin - En El Amor {Carpe Diem} [24-96]

2017 Nataša Mirković with Michel Godard & Jarrod Cagwin - En El Amor {Carpe Diem} [24-96]
Дата издания диска:
9 января 2017
Битрейт аудио:
lossless
Доп. инфо:

Формат записи/Источник записи: [TR24][OF]
Наличие водяных знаков: Нет
Год издания/переиздания диска: 2017
Издатель (лейбл): Carpe Diem Records
Продолжительность: 01:00:35
Наличие сканов в содержимом раздачи: Буклет PDF
Источник (релизер): qobuz

Контейнер: FLAC (*.flac)
Тип рипа: tracks
Разрядность: 24/96
Формат: PCM
Количество каналов: 2.0

Лог проверки качества
foobar2000 1.1.15 / Dynamic Range Meter 1.1.1
log date: 2020-10-11 20:13:34

--------------------------------------------------------------------------------
Analyzed: Nataša Mirkovic / En el amor
--------------------------------------------------------------------------------

DR         Peak         RMS     Duration Track
--------------------------------------------------------------------------------
DR13      -9.62 dB   -28.72 dB      2:24 01-Madre un manseviko
DR17      -1.57 dB   -24.96 dB      2:48 02-Buenas noches Hanum Dudu
DR12      -2.45 dB   -20.48 dB      4:29 03-Ken kere tomar konsejo
DR13      -1.95 dB   -19.51 dB      3:29 04-La tore
DR14      -1.18 dB   -20.42 dB      4:36 05-Anderleto
DR15      -1.26 dB   -22.39 dB      7:58 06-Porke yoras
DR12      -3.54 dB   -18.91 dB      5:59 07-Noches noches, buenas noches
DR13      -1.17 dB   -19.52 dB      4:46 08-Ken ez esto
DR15      -1.17 dB   -20.48 dB      4:27 09-Poko le dash la mi konsuegra
DR12      -5.62 dB   -20.68 dB      3:12 10-Lavaba la blanca niña
DR11      -3.93 dB   -21.34 dB      4:07 11-Durme durme
DR14      -1.17 dB   -22.95 dB      5:43 12-En el o
DR13      -8.11 dB   -28.05 dB      3:14 13-Oh! Qué tiempo muy hermozo
DR13      -1.18 dB   -18.60 dB      3:24 14-Oy ke buena ke fue la ora
--------------------------------------------------------------------------------

Number of tracks:  14
Official DR value: DR13

Samplerate:        96000 Hz
Channels:          2
Bits per sample:   24
Bitrate:           2562 kbps
Codec:             FLAC
================================================================================
No seeders - write personal message to M0p94ok. Any questions - support@pro-jazz.com.
Нет сидеров - пишите в личку M0p94ok. Есть вопросы - support@pro-jazz.com
15:48
341
Нет комментариев. Ваш будет первым!