Поиск

1957 Lee Wiley - West Of The Moon (2019) {RevOla} [24-44,1]

1957 Lee Wiley - West Of The Moon (2019) {RevOla} [24-44,1]
Стили:
Дата переиздания диска:
13 июня 2019
Издатель (лейбл):
Битрейт аудио:
lossless
Доп. инфо:

Формат записи/Источник записи: [TR24][OF]
Издание: Remastered
Год издания/переиздания диска: 1957/2019
Продолжительность: 00:46:56
Наличие сканов в содержимом раздачи: Нет

Контейнер: FLAC (*.flac)
Тип рипа: tracks
Разрядность: 24/44,1
Количество каналов: 2.0

Источник (релизер): Qobuz

Лог проверки качества
foobar2000 1.4.3 / Dynamic Range Meter 1.1.1
log date: 2020-10-10 20:07:20

--------------------------------------------------------------------------------
Analyzed: Lee Wiley / West Of The Moon
--------------------------------------------------------------------------------

DR         Peak         RMS     Duration Track
--------------------------------------------------------------------------------
DR9       -1.75 dB   -12.55 dB      2:52 01, 01-You're A Sweetheart (Remastered)
DR10      -1.56 dB   -13.70 dB      2:53 02, 02-This Is New (Remastered)
DR9       -1.75 dB   -12.91 dB      2:56 03, 03-You Must Have Been A Beautiful Baby (Remastered)
DR10      -3.07 dB   -16.18 dB      3:49 04, 04-Who Can I Turn To Now? (Remastered)
DR11      -3.67 dB   -16.54 dB      3:20 05, 05-My Ideal (Remastered)
DR11      -1.28 dB   -13.71 dB      3:10 06, 06-Can't Get Out Of This Mood (Remastered)
DR10      -2.67 dB   -14.94 dB      3:30 07, 07-East Of Sun (West Of The Moon) (Remastered)
DR9       -1.50 dB   -12.68 dB      3:46 08, 08-I Left My Sugar Standing In The Rain (Remastered)
DR10      -1.75 dB   -14.03 dB      3:37 09, 09-Moonstruck (Remastered)
DR10      -1.52 dB   -14.46 dB      3:01 10, 10-Limehouse Blues (Remastered)
DR10      -3.43 dB   -15.94 dB      3:11 11, 11-As Time Goes By (Remastered)
DR10      -1.64 dB   -13.18 dB      2:46 12, 12-Keepin' Out Of Mischief Now (Remastered)
DR13      -2.41 dB   -17.99 dB      4:05 13, 13-Stars Fell on Alabama (Remastered)
DR13      -2.55 dB   -18.35 dB      4:06 14, 14-Do You Know What It is To Miss New Orleans? (Remastered)
--------------------------------------------------------------------------------

Number of tracks:  14
Official DR value: DR10

Samplerate:        44100 Hz
Channels:          2
Bits per sample:   24
Bitrate:           1069 kbps
Codec:             FLAC
================================================================================
No seeders - write personal message to M0p94ok. Any questions - support@pro-jazz.com.
Нет сидеров - пишите в личку M0p94ok. Есть вопросы - support@pro-jazz.com
15:57
257
Нет комментариев. Ваш будет первым!