Вы используете незарегистрированную версию компонента "Вкладки"!

Поиск

1959 Lalo Schifrin - Piano Espanol (2018 Remastered) {RevOla} [24-44,1]

1959 Lalo Schifrin - Piano Espanol (2018 Remastered) {RevOla} [24-44,1]
Место записи:
New York City, New York, USA
Издатель (лейбл):
Носитель:
WEB
Формат:
PCM
Тип рипа:
tracks+.cue
Контейнер:
FLAC (*.flac)
Количество каналов:
2.0
Разрядность/ЧД:
24/44,1
Битрейт аудио:
lossless
Время звучания:
00:34:36
Наличие сканов:
web
Страна-производитель диска (релиза):
USA
Релизёр (источник):
M0p94ok
Лог проверки качества
foobar2000 1.3.16 / Dynamic Range Meter 1.1.1
log date: 2019-01-15 21:04:22

--------------------------------------------------------------------------------
Analyzed: Lalo Schifrin / Piano Espanol (Remastered)
--------------------------------------------------------------------------------

DR         Peak         RMS     Duration Track
--------------------------------------------------------------------------------
DR11      -0.23 dB   -13.49 dB      3:25 01-Frenesi (Remastered)
DR8       -0.64 dB   -11.04 dB      2:52 02-The Breeze and I (Remastered)
DR9       -2.06 dB   -13.40 dB      3:25 03-Capricho Espanol (Remastered)
DR10      -0.62 dB   -13.13 dB      2:49 04-My Shawl (Remastered)
DR12      -1.07 dB   -14.90 dB      3:18 05-Caravan (Remastered)
DR9       -1.01 dB   -11.61 dB      2:14 06-Malaguena (Remastered)
DR9       -1.03 dB   -11.89 dB      2:56 07-Cha Cha Cha Flamenco (Remastered)
DR8       -2.02 dB   -11.76 dB      2:02 08-Warsaw Concerto (Remastered)
DR11      -1.65 dB   -14.71 dB      3:12 09-Hullabalues (Remastered)
DR10      -0.26 dB   -12.31 dB      2:35 10-Jungle Fantasy (Remastered)
DR12      -1.05 dB   -15.17 dB      3:19 11-All the Things You Are (Remastered)
DR10      -0.94 dB   -12.57 dB      2:37 12-El Cumbanchero (Remastered)
--------------------------------------------------------------------------------

Number of tracks:  12
Official DR value: DR10

Samplerate:        44100 Hz
Channels:          2
Bits per sample:   24
Bitrate:           1591 kbps
Codec:             FLAC
================================================================================
Any questions - support@pro-jazz.com. Есть вопросы - support@pro-jazz.com
10:58
236
Нет комментариев. Ваш будет первым!