Вы используете незарегистрированную версию компонента "Вкладки"!

Поиск

1983 Pat Metheny Group - Travels (2020) {ECM} [24-96]

1983 Pat Metheny Group - Travels (2020) {ECM} [24-96]
Стили:
Битрейт аудио:
lossless
Доп. инфо:

Формат записи/Источник записи: [TR24][OF]
Издание: Remastered
Год издания/переиздания диска: 1983/2020
Продолжительность: 01:36:37
Наличие сканов в содержимом раздачи: Буклет PDF

Контейнер: FLAC (*.flac)
Тип рипа: tracks
Разрядность: 24/96
Количество каналов: 2.0

Источник (релизер): e-onkyo

Лог проверки качества
foobar2000 1.4.3 / Dynamic Range Meter 1.1.1
log date: 2020-08-02 07:42:33

--------------------------------------------------------------------------------
Analyzed: Pat Metheny Group / Travels
--------------------------------------------------------------------------------

DR         Peak         RMS     Duration Track
--------------------------------------------------------------------------------
DR12      -1.18 dB   -16.49 dB      9:24 01-Are You Going With Me? (Live)
DR12      -3.16 dB   -20.38 dB      7:47 02-The Fields, The Sky (Live)
DR13      -5.06 dB   -22.78 dB      8:19 03-Goodbye (Live)
DR12      -2.27 dB   -18.25 dB      8:04 04-Phase Dance (Live)
DR11      -1.68 dB   -15.95 dB      7:27 05-Straight On Red (Live)
DR15      -3.63 dB   -22.85 dB      6:28 06-Farmer's Trust (Live)
DR13      -3.98 dB   -20.22 dB      5:44 07-Extradition (Live)
DR13      -1.21 dB   -20.20 dB     16:24 08-Goin' Ahead / As Falls Wichita, So Falls Wichita Falls (Live)
DR13      -6.98 dB   -24.91 dB      5:03 09-Travels (Live)
DR12      -2.13 dB   -18.36 dB      8:26 10-Song For Bilbao (Live)
DR14      -2.64 dB   -21.69 dB     13:34 11-San Lorenzo (Live)
--------------------------------------------------------------------------------

Number of tracks:  11
Official DR value: DR13

Samplerate:        96000 Hz
Channels:          2
Bits per sample:   24
Bitrate:           2732 kbps
Codec:             FLAC
================================================================================
Any questions - support@pro-jazz.com. Есть вопросы - support@pro-jazz.com
11:04
236
Нет комментариев. Ваш будет первым!