Вы используете незарегистрированную версию компонента "Вкладки"!

Поиск

2016 Max Mutzke - Experience (Live) {Sony Music} [24-44,1]

2016 Max Mutzke - Experience (Live) {Sony Music} [24-44,1]
Стили:
Издатель (лейбл):
Номер по каталогу:
88985348002
Носитель:
WEB
Формат:
PCM
Тип рипа:
tracks+.cue
Контейнер:
FLAC (*.flac)
Количество каналов:
2.0
Разрядность/ЧД:
24/44,1
Битрейт аудио:
lossless
Время звучания:
01:23:01
Наличие сканов:
web
Страна-производитель диска (релиза):
Germany
Релизёр (источник):
M0p94ok
Лог проверки качества
foobar2000 1.3.16 / Dynamic Range Meter 1.1.1
log date: 2019-01-15 21:05:54

--------------------------------------------------------------------------------
Analyzed: Max Mutzke / Experience (Live)
--------------------------------------------------------------------------------

DR         Peak         RMS     Duration Track
--------------------------------------------------------------------------------
DR8       -0.70 dB   -11.46 dB      4:18 01-IOU (Live with NDR Radiophilharmonie)
DR8       -0.70 dB   -11.76 dB      3:37 02-Praise the Day (Live with NDR Radiophilharmonie)
DR10      -0.70 dB   -12.48 dB      4:48 03-Unsere Nacht (Live with NDR Radiophilharmonie)
DR10      -1.00 dB   -12.90 dB      3:42 04-Marie (Live with NDR Radiophilharmonie)
DR8       -0.70 dB   -11.79 dB      4:32 05-Magisch (Live with NDR Radiophilharmonie)
DR11      -1.70 dB   -16.50 dB      3:43 06-The Way We Were (Live with NDR Radiophilharmonie)
DR10      -0.70 dB   -14.13 dB      5:58 07-Me & Mrs Jones (Live with NDR Radiophilharmonie)
DR10      -2.00 dB   -17.83 dB      6:02 08-Creep (Live with NDR Radiophilharmonie)
DR9       -0.70 dB   -12.71 dB      5:19 09-Not Right (Live with NDR Radiophilharmonie)
DR9       -0.70 dB   -11.92 dB      5:29 10-Ich ohne dich (Live with NDR Radiophilharmonie)
DR10      -1.70 dB   -15.84 dB      5:30 11-You Are All Around Me (Live with NDR Radiophilharmonie)
DR11      -1.70 dB   -17.10 dB      4:54 12-Hier bin ich Sohn (Live with NDR Radiophilharmonie)
DR10      -0.70 dB   -14.19 dB      4:26 13-Can't Wait Until Tonight (Live with NDR Radiophilharmonie)
DR9       -0.70 dB   -12.86 dB      4:09 14-Welt hinter Glas (Live with NDR Radiophilharmonie)
DR9       -0.70 dB   -11.92 dB      5:25 15-Schwarz auf Weiß (Live with NDR Radiophilharmonie)
DR9       -0.70 dB   -12.53 dB      4:29 16-So viel mehr (Live with NDR Radiophilharmonie)
DR9       -0.70 dB   -14.91 dB      6:49 17-You Are so Beautiful (Live)
--------------------------------------------------------------------------------

Number of tracks:  17
Official DR value: DR9

Samplerate:        44100 Hz
Channels:          2
Bits per sample:   24
Bitrate:           1502 kbps
Codec:             FLAC
================================================================================
Any questions - support@pro-jazz.com. Есть вопросы - support@pro-jazz.com
23:07
249
Нет комментариев. Ваш будет первым!