Вы используете незарегистрированную версию компонента "Вкладки"!

Поиск

2019 Jazzmuseo - Elävänä Pyynikinlinnassa (Live) {Alba ABCD 428} [24-48]

2019 Jazzmuseo - Elävänä Pyynikinlinnassa (Live) {Alba ABCD 428} [24-48]
Стили:
Дата записи диска:
7 февраля 2018
Место записи:
Pyynikinlinna Museum, Pyynikinlinna, Tampere, Finland
Номер по каталогу:
ABCD 428
Носитель:
WEB
Формат:
PCM
Тип рипа:
tracks+.cue
Контейнер:
FLAC (*.flac)
Количество каналов:
2.0
Разрядность/ЧД:
24/48
Битрейт аудио:
lossless
Время звучания:
00:52:41
Наличие сканов:
web
Релизёр (источник):
M0p94ok
Лог проверки качества
foobar2000 1.5.5 / Dynamic Range Meter 1.1.1
log date: 2020-09-11 18:41:44

--------------------------------------------------------------------------------
Analyzed: Jazzmuseo / Elävänä Pyynikinlinnassa (Live)
--------------------------------------------------------------------------------

DR         Peak         RMS     Duration Track
--------------------------------------------------------------------------------
DR11      -0.09 dB   -14.39 dB      5:50 01-Free Manha de Carnaval! (Live)
DR10      -0.09 dB   -12.63 dB      5:10 02-Sing Me Softly of the Blues (Live)
DR10      -0.09 dB   -12.66 dB      3:59 03-Twenty Small Cigars: 20 Small Cigars (Live)
DR10      -0.09 dB   -13.69 dB      4:03 04-A Change Is Gonna Come (Live)
DR10      -0.09 dB   -11.72 dB      5:38 05-Stolen Paintings (Live)
DR11      -0.09 dB   -14.41 dB      6:03 06-Song for Charlie (Live)
DR10      -0.09 dB   -12.64 dB      4:57 07-Valssi 543 (Live)
DR9       -0.09 dB   -12.31 dB      8:57 08-Avarilla mailla (Live)
DR10      -0.09 dB   -11.56 dB      3:57 09-Outolintu (Live)
DR10      -0.53 dB   -15.13 dB      4:12 10-Untitled of My Life (Live)
--------------------------------------------------------------------------------

Number of tracks:  10
Official DR value: DR10

Samplerate:        48000 Hz
Channels:          2
Bits per sample:   24
Bitrate:           1415 kbps
Codec:             FLAC
================================================================================
Any questions - support@pro-jazz.com. Есть вопросы - support@pro-jazz.com
18:56
201
Нет комментариев. Ваш будет первым!