Поиск

1959 Billie Holiday - Last Recordings (2019) {RevOla} [24-44.1]

1959 Billie Holiday - Last Recordings (2019) {RevOla} [24-44.1]
Стили:
Дата издания диска:
29 апреля 2019
Издатель (лейбл):
Носитель:
CD
Формат:
PCM
Тип рипа:
tracks+.cue
Контейнер:
FLAC (*.flac)
Количество каналов:
2.0
Разрядность/ЧД:
24/44,1
Битрейт аудио:
lossless
Время звучания:
00:37:16
Наличие сканов:
web
Наличие водяных знаков:
нет
Страна-производитель диска (релиза):
USA
Релизёр (источник):
M0p94ok

Треклист:

01. All of You (Remastered)  02:33
02. Sometimes I'm Happy (Remastered)  02:49
03. You Took Advantage Of Me (Remastered)  03:12
04. When It's Sleepy Time Down South (Remastered)  04:08
05. There'll Be Some Changes Made (Remastered)  02:55
06. 'Deed I Do (Remastered)  02:17
07. Don't Worry 'bout Me (Remastered)  03:11
08. All The Way (Remastered)  03:25
09. Just One More Chance (Remastered)  03:47
10. It's Not For Me To Say (Remastered)  02:29
11. I'll Never Smile Again (Remastered)  03:27
12. Baby, Won't You Please Come Home (Remastered)  03:03

Лог проверки качества
foobar2000 1.6.2 / Dynamic Range Meter 1.1.1
log date: 2021-02-22 13:06:22

--------------------------------------------------------------------------------
Analyzed: Billie Holiday / Last Recordings
--------------------------------------------------------------------------------

DR         Peak         RMS     Duration Track
--------------------------------------------------------------------------------
DR14      -4.26 dB   -21.19 dB      2:33 01-All of You
DR14      -3.39 dB   -20.86 dB      2:50 02-Sometimes I'm Happy
DR14      -2.51 dB   -19.84 dB      3:12 03-You Took Advantage Of Me
DR13      -3.15 dB   -20.77 dB      4:08 04-When It's Sleepy Time Down South
DR15      -3.19 dB   -23.84 dB      2:56 05-There'll Be Some Changes Made
DR13      -2.33 dB   -19.29 dB      2:18 06-'Deed I Do
DR14      -2.61 dB   -21.28 dB      3:12 07-Don't Worry 'bout Me
DR13      -2.28 dB   -18.94 dB      3:26 08-All The Way
DR14      -2.61 dB   -20.28 dB      3:47 09-Just One More Chance
DR13      -2.61 dB   -22.52 dB      2:29 10-It's Not For Me To Say
DR13      -3.90 dB   -21.35 dB      3:27 11-I'll Never Smile Again
DR13      -2.61 dB   -21.79 dB      3:04 12-Baby, Won't You Please Come Home
--------------------------------------------------------------------------------

Number of tracks:  12
Official DR value: DR14

Samplerate:        44100 Hz
Channels:          2
Bits per sample:   24
Bitrate:           1424 kbps
Codec:             FLAC
================================================================================
Приватный:
Нет (DHT включён)
Размер:
365.10 Мб (382,837,649 байт) » файлов: 17
Участники:
0 раздают, 0 качают (0 участников всего)
Внешние участники:
29 раздают, 10 качают (39 участников всего) [ Обновить ]
For power users only: no seeders - write to support@pro-jazz.com. Для power user: нет сидеров - пишите на support@pro-jazz.com.
14:57
32
Нет комментариев. Ваш будет первым!