Поиск

2019 Fumio Yasuda - Forest {Winter & Winter} [24-96]

2019 Fumio Yasuda - Forest {Winter & Winter} [24-96]
Дата записи диска:
28 октября 2015 и 9 ноября 2016
Место записи:
Genonsha Studio 246, Tokyo, Japan; Sound City Setagaya Studio, Tokyo, Japan
Дата издания диска:
15 марта 2019
Носитель:
WEB
Формат:
PCM
Тип рипа:
tracks+.cue
Контейнер:
APE (*.ape)
Количество каналов:
2.0
Разрядность/ЧД:
24/96
Битрейт аудио:
lossless
Время звучания:
01:00:20
Наличие сканов:
да
Страна-производитель диска (релиза):
Japan
Релизёр (источник):
M0p94ok
Лог проверки качества
foobar2000 1.3.16 / Dynamic Range Meter 1.1.1
log date: 2019-05-06 16:00:47

--------------------------------------------------------------------------------
Analyzed: Fumio Yasuda / Forest
--------------------------------------------------------------------------------

DR         Peak         RMS     Duration Track
--------------------------------------------------------------------------------
DR11      -0.66 dB   -16.00 dB      4:54 01-Rain Landscape
DR11      -0.66 dB   -15.97 dB      5:55 02-Thirst for Love
DR11      -1.14 dB   -16.84 dB      4:47 03-Black Rose Melancholy
DR11      -0.65 dB   -15.10 dB      4:10 04-Happiness
DR14      -0.66 dB   -19.71 dB      5:30 05-Things That Are Missing Here
DR14      -0.99 dB   -21.47 dB      4:31 06-Asian Nostalgia
DR12      -1.70 dB   -18.94 dB      4:53 07-Song of Lydia
DR9       -0.66 dB   -13.47 dB      5:39 08-Sounds from the Other Side
DR12      -0.93 dB   -17.82 dB      3:13 09-Cloudy Landscape
DR11      -0.66 dB   -15.68 dB      3:55 10-Fall of Icarus
DR10      -0.66 dB   -14.23 dB      3:34 11-Waltz for Monique
DR12      -1.65 dB   -17.67 dB      2:32 12-Mahoroba
DR14      -0.66 dB   -19.74 dB      6:54 13-Forest
--------------------------------------------------------------------------------

Number of tracks:  13
Official DR value: DR12

Samplerate:        96000 Hz
Channels:          2
Bits per sample:   24
Bitrate:           2040 kbps
Codec:             FLAC
================================================================================
No seeders - write personal message to M0p94ok. Any questions - support@pro-jazz.com.
Нет сидеров - пишите в личку M0p94ok. Есть вопросы - support@pro-jazz.com
12:33
175
Нет комментариев. Ваш будет первым!