Поиск

1975 Gerry Mulligan & Chet Baker - Carnegie Hall Concert (2017) {CTI} [24-192]

1975 Gerry Mulligan & Chet Baker - Carnegie Hall Concert (2017) {CTI} [24-192]
Дата записи диска:
24 ноября 1974
Место записи:
Carnegie Hall, New York City, NY, USA
Издатель (лейбл):
Битрейт аудио:
lossless
Время звучания:
01:11:59

Треклист:

1. Line for Lyons (Live)  08:14
2. For an Unfinished Woman  08:48
3. My Funny Valentine (Live)  08:40
4. Song For Strayhorn  09:26
5. It's Sandy At the Beach  09:08
6. Bernie's Tune (Album Version)  07:53
7. K-4 Pacific  11:41
8. There Will Never Be Another You  06:53

Доп. инфо:

Формат записи/Источник записи: [TR24][OF]
Издание: Remastered
Год издания/переиздания диска: 1975/2017
Наличие сканов в содержимом раздачи: Нет

Контейнер: FLAC (*.flac)
Тип рипа: tracks
Разрядность: 24/192
Количество каналов: 2.0

Лог проверки качества
foobar2000 1.4.3 / Dynamic Range Meter 1.1.1
log date: 2020-12-24 17:58:29

--------------------------------------------------------------------------------
Analyzed: Gerry Mulligan, Chet Baker / Carnegie Hall Concert
--------------------------------------------------------------------------------

DR         Peak         RMS     Duration Track
--------------------------------------------------------------------------------
DR13      -0.05 dB   -14.81 dB      8:22 01-Line For Lyons
DR14      -0.05 dB   -16.90 dB      9:00 02-(Song) For An Unfinished Woman
DR12      -0.05 dB   -15.95 dB      8:47 03-My Funny Valentine
DR13      -0.71 dB   -16.98 dB      9:41 04-Song For Strayhorn
DR14      -0.05 dB   -16.23 dB      9:17 05-It's Sandy At The Beach
DR13      -0.05 dB   -15.38 dB      8:03 06-Bernie's Tune
DR13      -0.05 dB   -15.53 dB     11:52 07-K-4 Pacific
DR14      -0.05 dB   -16.34 dB      6:59 08-There Will Never Be Another You
--------------------------------------------------------------------------------

Number of tracks:  8
Official DR value: DR13

Samplerate:        192000 Hz
Channels:          2
Bits per sample:   24
Bitrate:           5519 kbps
Codec:             FLAC
================================================================================
Приватный:
Нет (DHT включён)
Размер:
2.76 Гб (2,967,581,548 байт) » файлов: 13
Участники:
0 раздают, 0 качают (0 участников всего)
Внешние участники:
18 раздают, 6 качают (24 участников всего) [ Обновить ]
For power users only: no seeders - write to support@pro-jazz.com. Для power user: нет сидеров - пишите на support@pro-jazz.com.
01:43
30
Нет комментариев. Ваш будет первым!