Поиск

2019 Jekitiba - Jekitiba {Aurasky Music} [24-44.1]

2019 Jekitiba - Jekitiba {Aurasky Music} [24-44.1]
Стили:
Дата издания диска:
3 мая 2019
Носитель:
WEB
Формат:
PCM
Тип рипа:
tracks+.cue
Контейнер:
APE (*.ape)
Количество каналов:
2.0
Разрядность/ЧД:
24/44,1
Битрейт аудио:
lossless
Время звучания:
00:48:17
Наличие сканов:
web
Наличие водяных знаков:
нет
Релизёр (источник):
M0p94ok

Треклист:

01. Sunflower  05:12
02. Dumb Step  05:45
03. Teak Tree  03:56
04. Baiao Mineiro  04:58
05. Sowing On The Moon  05:33
06. Wondering  04:45
07. The Touareg  04:29
08. Soft Breeze  04:26
09. Mad Nomad  04:14
10. Sandy Twilight  04:59

Доп. инфо:

Jekitiba представляет европейский джаз, который бы много путешествовал и был бы обогащен культурами, с которыми он столкнулся. Большинство тем построено на бразильских и африканских ритмах, что придает особую атмосферу интерпретации этого джаза на перекрестке мировой музыки.

https://www.prostudiomasters.com/album/page/32262

Лог проверки качества
foobar2000 1.3.16 / Dynamic Range Meter 1.1.1
log date: 2019-05-06 16:02:16

--------------------------------------------------------------------------------
Analyzed: Jekitiba / Jekitiba
--------------------------------------------------------------------------------

DR         Peak         RMS     Duration Track
--------------------------------------------------------------------------------
DR9       -0.02 dB   -10.37 dB      5:13 01-Sunflower
DR8       -0.02 dB    -9.29 dB      5:45 02-Dumb Step
DR9       -0.02 dB   -10.90 dB      3:57 03-Teak Tree
DR10      -0.02 dB   -11.63 dB      4:59 04-Baiao Mineiro
DR9       -0.02 dB   -10.93 dB      5:34 05-Sowing On The Moon
DR9       -0.02 dB   -11.28 dB      4:45 06-Wondering
DR10      -0.02 dB   -11.70 dB      4:29 07-The Touareg
DR8       -0.02 dB    -9.36 dB      4:27 08-Soft Breeze
DR9       -0.02 dB   -10.21 dB      4:15 09-Mad Nomad
DR9       -0.02 dB    -9.95 dB      4:59 10-Sandy Twilight
--------------------------------------------------------------------------------

Number of tracks:  10
Official DR value: DR9

Samplerate:        44100 Hz
Channels:          2
Bits per sample:   24
Bitrate:           1440 kbps
Codec:             FLAC
================================================================================
Приватный:
Нет (DHT включён)
Размер:
505.07 Мб (529,600,095 байт) » файлов: 12
Участники:
4 раздают, 0 качают (4 участников всего)
Внешние участники:
--- [ Обновить ]
No seeders - write personal message to M0p94ok. Any questions - support@pro-jazz.com.
Нет сидеров - пишите в личку M0p94ok. Есть вопросы - support@pro-jazz.com
19:43
135
Нет комментариев. Ваш будет первым!