Поиск

2020 Dave Gisler Trio feat. Jaimie Branch - Zurich Concert {Intakt CD 357} [24-96]

2020 Dave Gisler Trio feat. Jaimie Branch - Zurich Concert {Intakt CD 357} [24-96]
Дата записи диска:
29 ноября 2019
Место записи:
unerhört!-Festival, Zürich, Switzerland
Дата издания диска:
20 ноября 2020
Издатель (лейбл):
Номер по каталогу:
CD 357
Битрейт аудио:
lossless
Доп. инфо:

Формат записи/Источник записи: [TR24][OF]
Наличие водяных знаков: Нет
Год издания/переиздания диска: 2020
Продолжительность: 00:51:05
Наличие сканов в содержимом раздачи: Нет

Контейнер: FLAC (*.flac)
Тип рипа: tracks
Разрядность: 24/96
Формат: PCM
Количество каналов: 2.0

Источник (релизер): qobuz.com (Anakunda)

Спустя три года после их знаменитого дебютного альбома Rabbit on the Run (Intakt CD 304) трио Дэйва Гислера представляет концертный альбом: Гость на трубе - Джейми Бранч. За последние несколько лет Дэйв Гислер заработал впечатляющую репутацию в свободомыслящем силовом поле современного джаза как независимый звукорежиссер на электрогитаре. С одной стороны, трио Дэйва Гислера любит удар рок-чувствительности, но оно весело скользит в более тихие и спокойные зоны, где отдельные звуки и потусторонние текстуры заново смешивают сущности. Любой, кто уже видел Джейми Бранч вживую, узнает ее уникальный способ настройки на энергию, то, как она стоит, берет инструмент и играет - естественная и суверенная, резкая и меланхоличная, легкая и весомая. С самого начала ясно, что энергия этого музыканта зажигает трио Дэйва Гислера. И, в свою очередь, вдохновение трио оказывает влияние на трубач, который возвращается в группу. «Музыка на концерте в Цюрихе вызывает живой отклик в эпоху, потрясенную эмоциями и крайностями», - пишет Пирмин Боссарт на обложке. «Это непоколебимое отношение, на поверхности пульс нежный и чувственный».

Лог проверки качества
foobar2000 1.6.2 / Dynamic Range Meter 1.1.1
log date: 2020-11-24 04:11:24

--------------------------------------------------------------------------------
Analyzed: Dave Gisler Trio feat. Jaimie Branch / Zurich Concert (Live)
--------------------------------------------------------------------------------

DR         Peak         RMS     Duration Track
--------------------------------------------------------------------------------
DR10      -0.32 dB   -13.63 dB      5:06 01-Intro (Live)
DR10      -0.31 dB   -12.60 dB      7:50 02-Nameless (Live)
DR7       -0.31 dB    -8.94 dB      5:11 03-What Goes Up... (Live)
DR12      -0.32 dB   -16.23 dB      4:05 04-Cappuccino (Live)
DR14      -3.78 dB   -25.02 dB      2:43 05-Spiegelgasse (Live)
DR10      -0.31 dB   -13.53 dB      8:27 06-One Minute Too Late (Live)
DR7       -0.31 dB    -8.85 dB      5:15 07-Rabbits on the Run (Live)
DR8       -0.31 dB   -11.55 dB      6:00 08-Better Don't Fuck with the Drunken Sailor (Live)
DR7       -0.31 dB    -8.81 dB      6:29 09-Dive (Live)
--------------------------------------------------------------------------------

Number of tracks:  9
Official DR value: DR9

Samplerate:        96000 Hz
Channels:          2
Bits per sample:   24
Bitrate:           3054 kbps
Codec:             FLAC
================================================================================
No seeders - write personal message to M0p94ok. Any questions - support@pro-jazz.com.
Нет сидеров - пишите в личку M0p94ok. Есть вопросы - support@pro-jazz.com
18:50
176
Нет комментариев. Ваш будет первым!