Поиск

2020 Eric Reed - For Such a Time as This {Smoke Sessions} [24-96]

2020 Eric Reed - For Such a Time as This {Smoke Sessions} [24-96]
Дата записи диска:
29 июня - 30 июня 2020
Место записи:
Tritone Recording Studio, Glendale, California
Дата издания диска:
27 ноября 2020
Издатель (лейбл):
Битрейт аудио:
lossless

Треклист:

01 - Paradox Peace 01:04
02 - Western Rebellion 04:19
03 - Thelonigus 05:31
04 - Stella by Starlight 03:51
05 - It's You or No One 05:50
06 - Walltz 06:45
07 - Bebophobia 05:50
08 - Come Sunday 02:52
09 - We Shall Overcome 03:55
10 - Make Me Better 05:26
11 - The Break 08:17
12 - Hymn of Faith 02:28

Доп. инфо:

Формат записи/Источник записи: [TR24][OF]
Год издания/переиздания диска: 2020
Издатель (лейбл): Smoke Sessions
Продолжительность: 00:56:08
Наличие сканов в содержимом раздачи: Нет

Контейнер: FLAC (*.flac)
Тип рипа: tracks
Разрядность: 24/96
Количество каналов: 2.0

Источник (релизер): HIGHRESAUDIO

Лог проверки качества
foobar2000 1.6.2 / Dynamic Range Meter 1.1.1
log date: 2020-11-27 08:13:37

--------------------------------------------------------------------------------
Analyzed: Eric Reed / For Such a Time as This
--------------------------------------------------------------------------------

DR         Peak         RMS     Duration Track
--------------------------------------------------------------------------------
DR12      -1.40 dB   -17.08 dB      1:05 01-Paradox Peace
DR8       -1.58 dB   -11.51 dB      4:20 02-Western Rebellion
DR8       -1.60 dB   -11.74 dB      5:31 03-Thelonigus
DR14      -1.40 dB   -20.89 dB      3:51 04-Stella by Starlight
DR9       -1.40 dB   -13.91 dB      5:50 05-It's You or No One
DR9       -1.40 dB   -15.15 dB      6:46 06-Walltz
DR10      -1.60 dB   -13.69 dB      5:50 07-Bebophobia
DR12      -1.40 dB   -17.51 dB      2:53 08-Come Sunday
DR15      -1.40 dB   -19.92 dB      3:56 09-We Shall Overcome
DR8       -1.60 dB   -12.32 dB      5:26 10-Make Me Better
DR9       -1.59 dB   -12.93 dB      8:17 11-The Break
DR7       -1.40 dB   -12.63 dB      2:28 12-Hymn of Faith
--------------------------------------------------------------------------------

Number of tracks:  12
Official DR value: DR10

Samplerate:        96000 Hz
Channels:          2
Bits per sample:   24
Bitrate:           2392 kbps
Codec:             FLAC
================================================================================
Приватный:
Нет (DHT включён)
Размер:
1.08 Гб (1,163,498,067 байт) » файлов: 17
Участники:
0 раздают, 0 качают (0 участников всего)
Внешние участники:
--- [ Обновить ]
For power users only: no seeders - write to support@pro-jazz.com. Для power user: нет сидеров - пишите на support@pro-jazz.com.
01:48
23
Нет комментариев. Ваш будет первым!