Поиск

2020 Christian Sands - Be Water {Mack Avenue} [24-96]

2020 Christian Sands - Be Water {Mack Avenue} [24-96]
Стили:
Дата издания диска:
17 июля 2020
Издатель (лейбл):
Битрейт аудио:
lossless
Доп. инфо:

Формат записи/Источник записи: [TR24][OF]
Наличие водяных знаков: Нет
Год издания/переиздания диска: 2020
Продолжительность: 01:04:30
Наличие сканов в содержимом раздачи: Нет
Контейнер: FLAC (*.flac)
Тип рипа: tracks
Разрядность: 24/96
Формат: LPCM
Количество каналов: 2.0

Источник (релизер): qobuz.com (ilikepeaches)

Лог проверки качества
foobar2000 1.4.6 / Замер динамического диапазона (DR) 1.1.1
Дата отчёта:  2020-12-22 16:45:07

--------------------------------------------------------------------------------
Анализ:   Christian Sands / Be Water
--------------------------------------------------------------------------------

DR         Пики         RMS           Продолжительность трека
--------------------------------------------------------------------------------
DR10      -0.32 дБ   -14.42 дБ      3:38 01-Intro
DR8       -0.31 дБ   -10.97 дБ      7:12 02-Sonar
DR8       -0.32 дБ   -11.54 дБ      5:57 03-Be Water I
DR10      -0.32 дБ   -12.49 дБ      6:04 04-Crash
DR8       -0.31 дБ   -10.73 дБ      8:16 05-Drive
DR8       -0.31 дБ   -11.94 дБ      7:43 06-Steam
DR8       -0.32 дБ   -12.51 дБ      7:13 07-Can’t Find My Way Home
DR7       -0.32 дБ   -10.77 дБ      5:59 08-Be Water II
DR13      -0.32 дБ   -17.61 дБ      9:03 09-Still
DR7       -0.31 дБ    -8.57 дБ      3:24 10-Outro
--------------------------------------------------------------------------------

Количество треков: 10
Реальные значения DR: DR9

Частота:   96000 Гц
Каналов:   2
Разрядность:   24
Битрейт:   3009 кбит/с
Кодек:   FLAC
================================================================================
No seeders - write personal message to M0p94ok. Any questions - support@pro-jazz.com.
Нет сидеров - пишите в личку M0p94ok. Есть вопросы - support@pro-jazz.com
17:04
186
Нет комментариев. Ваш будет первым!