Поиск

2014 Theo Croker - AfroPhysicist {Okeh, Sony Masterworks} [24-88.2]

2014 Theo Croker - AfroPhysicist {Okeh, Sony Masterworks} [24-88.2]
Место записи:
Avatar Studios, New York City, NY, USA
Дата издания диска:
28 марта 2014
Издатель (лейбл):
Номер по каталогу:
88883796312
Носитель:
WEB
Формат:
PCM
Тип рипа:
tracks+.cue
Контейнер:
APE (*.ape)
Количество каналов:
2.0
Разрядность/ЧД:
24/88,2
Битрейт аудио:
lossless
Время звучания:
00:55:21
Наличие сканов:
web
Страна-производитель диска (релиза):
USA
Релизёр (источник):
M0p94ok
Лог проверки качества
foobar2000 1.3.16 / Dynamic Range Meter 1.1.1
log date: 2019-05-03 22:22:30

--------------------------------------------------------------------------------
Analyzed: Theo Croker / AfroPhysicist
--------------------------------------------------------------------------------

DR         Peak         RMS     Duration Track
--------------------------------------------------------------------------------
DR16      -1.57 dB   -23.93 dB      2:00 01-Alapa (For Doc)
DR14       0.00 dB   -14.78 dB      5:37 02-Realize
DR13      -0.87 dB   -16.08 dB      6:15 03-It's Not You It's Me (But You Didn't Help)
DR13      -0.30 dB   -15.66 dB      3:24 04-Light Skinned Beauty
DR14      -0.20 dB   -16.33 dB      4:44 05-Wanting Your Love
DR10      -3.85 dB   -15.73 dB      5:31 06-Save Your Love for Me (feat. Dee Dee Bridgewater)
DR10      -6.57 dB   -19.50 dB      6:38 07-Visions (feat. Stefon Harris)
DR14       0.00 dB   -16.13 dB      4:35 08-The Fundamentals
DR12      -0.80 dB   -15.15 dB      4:53 09-Roy Allan (feat. Roy Hargrove)
DR12      -2.81 dB   -17.25 dB      3:23 10-Moody's Mood for Love (feat. Dee Dee Bridgewater)
DR14       0.00 dB   -15.65 dB      5:30 11-I Can't Help It (feat. Dee Dee Bridgewater)
DR12      -6.81 dB   -21.46 dB      2:51 12-Bo Masekela
--------------------------------------------------------------------------------

Number of tracks:  12
Official DR value: DR13

Samplerate:        88200 Hz
Channels:          2
Bits per sample:   24
Bitrate:           2143 kbps
Codec:             FLAC
================================================================================
No seeders - write personal message to M0p94ok. Any questions - support@pro-jazz.com.
Нет сидеров - пишите в личку M0p94ok. Есть вопросы - support@pro-jazz.com
14:11
163
Нет комментариев. Ваш будет первым!