Поиск

2015 Amir ElSaffar, Two Rivers Ensemble - Crisis {Pi PI59} [24-48]

2015 Amir ElSaffar, Two Rivers Ensemble - Crisis {Pi PI59} [24-48]
Стили:
Дата издания диска:
24 июля 2015
Номер по каталогу:
PI59
Носитель:
WEB
Формат:
PCM
Тип рипа:
tracks+.cue
Контейнер:
APE (*.ape)
Количество каналов:
2.0
Разрядность/ЧД:
24/48
Битрейт аудио:
lossless
Время звучания:
01:06:33
Наличие сканов:
да
Наличие водяных знаков:
нет
Страна-производитель диска (релиза):
USA
Релизёр (источник):
M0p94ok
Треклист:

1. Introduction – From the Ashes 04:54
2. The Great Dictator 08:50
3. Taqsim Saba 03:17
4. El-Sha'ab (The People) 08:18
5. Love Poem 07:05
6. Flyover Iraq 09:45
7. Tipping Point 13:40
8. Aneen (Weeping), Continued 03:36
9. Love Poem (Complete) 07:08

Доп. инфо:

Crisis рассказывает о продолжающемся развитии признанного критиками ансамбля Two Rivers Ensemble трубача Амира Эль-Саффара, группы, специально созданной для исследования стыка джаза и музыки Ближнего Востока, в частности иракского макама. Новая работа - это его размышления о регионе, охваченном беспорядками и раздорами: революция, гражданская война, межрелигиозное насилие; борьба культуры за выживание. Он оставляет в стороне некоторые из более исследовательских работ, которые он проделал в последние годы, чтобы сосредоточиться на музыке, которая является страстной и интуитивной, криком сердца. Кризис был заказан джазовым фестивалем в Ньюпорте, где на своей премьере в 2013 году он установил четкую эмоциональную связь с публикой, получив бурные овации уже после первого произведения. Музыка ElSaffar не поддается категоризации - это не джаз, музыка мира или какое-либо их легкое сочетание, а музыка ЭльСаффара не поддается категоризации, а представляет собой отдельный мир.

https://amirelsaffartworivers.bandcamp.com/album/crisis

Лог проверки качества
foobar2000 1.3.16 / Dynamic Range Meter 1.1.1
log date: 2019-05-06 22:48:46

--------------------------------------------------------------------------------
Analyzed: Amir ElSaffar, Two Rivers Ensemble / Crisis
--------------------------------------------------------------------------------

DR         Peak         RMS     Duration Track
--------------------------------------------------------------------------------
DR9       -0.44 dB   -13.37 dB      4:54 01-Introduction - From the Ashes
DR8       -0.26 dB   -10.64 dB      8:51 02-The Great Dictator
DR11      -2.87 dB   -19.41 dB      3:17 03-Taqsim Saba
DR7       -0.28 dB   -10.15 dB      8:18 04-El-Sha'ab (The People)
DR12      -0.46 dB   -14.89 dB      7:05 05-Love Poem
DR8       -0.28 dB   -11.51 dB      9:45 06-Flyover Iraq
DR8       -0.25 dB   -11.07 dB     13:40 07-Tipping Point
DR13      -0.50 dB   -19.02 dB      3:37 08-Aneed (Weeping), Continued
DR11      -0.47 dB   -14.65 dB      7:09 09-Love Poem (Complete)
--------------------------------------------------------------------------------

Number of tracks:  9
Official DR value: DR10

Samplerate:        48000 Hz
Channels:          2
Bits per sample:   24
Bitrate:           1597 kbps
Codec:             FLAC
================================================================================
Приватный:
Нет (DHT включён)
Размер:
781.76 Мб (819,734,664 байт) » файлов: 12
Участники:
0 раздают, 0 качают (0 участников всего)
Внешние участники:
--- [ Обновить ]
No seeders - write personal message to M0p94ok. Нет сидеров - пишите в личку M0p94ok.
01:20
116
Нет комментариев. Ваш будет первым!