Поиск

2021 Kari Ikonen - Impressions, Improvisations and Compositions {Ozella OZ097} [24-96]

2021 Kari Ikonen - Impressions, Improvisations and Compositions {Ozella OZ097} [24-96]
Дата издания диска:
8 января 2021
Издатель (лейбл):
Номер по каталогу:
OZ097
Носитель:
WEB
Формат:
PCM
Тип рипа:
tracks+.cue
Контейнер:
FLAC (*.flac)
Количество каналов:
2.0
Разрядность/ЧД:
24/96
Битрейт аудио:
lossless
Время звучания:
00:38:35
Наличие сканов:
web
Наличие водяных знаков:
нет
Страна-производитель диска (релиза):
Finland
Релизёр (источник):
M0p94ok

Треклист:

01. Imprologue  01:25
02. Maqtu'ah on Maqam Rast  04:24
03. Pinocchio  03:15
04. Rausch  01:54
05. Taqsim on Maqam Saba  04:44
06. Blue  02:26
07. Violet  01:22
08. Koto  05:00
09. Oppressive  01:31
10. Three-Chord Blues  02:24
11. Trance Oriental  04:47
12. The Evergreen Earth  05:23

Лог проверки качества
foobar2000 1.6.2 / Dynamic Range Meter 1.1.1
log date: 2021-04-10 13:53:50

--------------------------------------------------------------------------------
Analyzed: Kari Ikonen / Impressions, Improvisations and Compositions
--------------------------------------------------------------------------------

DR         Peak         RMS     Duration Track
--------------------------------------------------------------------------------
DR13      -0.68 dB   -17.77 dB      1:26 01-Imprologue
DR12      -0.61 dB   -14.92 dB      4:24 02-Maqtu'ah on Maqam Rast
DR12      -0.52 dB   -16.29 dB      3:15 03-Pinocchio
DR13      -1.34 dB   -18.17 dB      1:54 04-Rausch
DR12      -0.62 dB   -18.78 dB      4:45 05-Taqsim on Maqam Saba
DR17      -5.90 dB   -30.25 dB      2:26 06-Blue
DR11      -0.90 dB   -17.39 dB      1:22 07-Violet
DR15      -0.52 dB   -19.70 dB      5:00 08-Koto
DR14      -0.68 dB   -18.55 dB      1:32 09-Oppressive
DR15      -2.19 dB   -24.97 dB      2:24 10-Three-Chord Blues
DR11      -0.68 dB   -16.32 dB      4:47 11-Trance Oriental
DR15      -0.90 dB   -23.37 dB      5:23 12-The Evergreen Earth
--------------------------------------------------------------------------------

Number of tracks:  12
Official DR value: DR13

Samplerate:        96000 Hz
Channels:          2
Bits per sample:   24
Bitrate:           2292 kbps
Codec:             FLAC
================================================================================
Приватный:
Нет (DHT включён)
Размер:
638.96 Мб (669,997,979 байт) » файлов: 15
Участники:
3 раздают, 0 качают (3 участников всего)
Внешние участники:
--- [ Обновить ]
No seeders - write personal message to M0p94ok. Нет сидеров - пишите в личку M0p94ok.
01:19
114
Нет комментариев. Ваш будет первым!