Поиск

1959-1967 Borje Fredriksson - Börje Fredriksson, saxofonist (Live) (2019) {Caprice} [24-44.1]

1959-1967 Borje Fredriksson - Börje Fredriksson, saxofonist (Live) (2019) {Caprice} [24-44.1]
Стили:
Носитель:
WEB
Формат:
PCM
Тип рипа:
tracks+.cue
Контейнер:
APE (*.ape)
Количество каналов:
2.0
Разрядность/ЧД:
24/44,1
Битрейт аудио:
lossless
Время звучания:
01:38:34
Наличие сканов:
web
Страна-производитель диска (релиза):
Nor
Релизёр (источник):
M0p94ok
Лог проверки качества
foobar2000 1.6.2 / Dynamic Range Meter 1.1.1
log date: 2021-02-18 19:32:45

--------------------------------------------------------------------------------
Analyzed: Börje Fredriksson / Börje Fredriksson, saxofonist (Live) (1-14)
          Ned Washington / Börje Fredriksson, saxofonist (Live) (15)
--------------------------------------------------------------------------------

DR         Peak         RMS     Duration Track
--------------------------------------------------------------------------------
DR11      -2.76 dB   -16.42 dB      3:57 01-Silvia (Live at MEA-huset, Stockholm, 1959)
DR14      -2.87 dB   -19.92 dB      4:58 02-Carl-Erik Lindgren intervjuar Börje Fredriksson för Sveriges Radio (June 1961)
DR10      -0.89 dB   -14.37 dB      4:42 03-God natt
DR13      -1.35 dB   -17.65 dB      5:19 04-Sommarnatt
DR15      -1.98 dB   -20.90 dB      1:17 05-Hans Fridlund intervjuar Börje Fredriksson för Sveriges Radio (Nov. 1962)
DR14      -2.87 dB   -21.95 dB      2:30 06-Mellanspel
DR14      -1.16 dB   -16.57 dB      6:55 07-Catrin
DR12      -1.15 dB   -15.43 dB     11:41 08-Intervall (Live at Moderna Museet, Stockholm, 1963)
DR10      -0.75 dB   -13.95 dB      7:12 10-Blues for Bass
DR12      -0.56 dB   -15.69 dB      6:12 11-Vasalöparna
DR13      -2.50 dB   -18.38 dB      6:23 12-Ballad för Laila (Live at Gyllene Cirkeln, Stockholm, 1965)
DR13      -0.89 dB   -17.05 dB     11:21 13-Börjes Blues (Live at Stockholm Jazz Festival, 1967)
DR13      -0.43 dB   -17.86 dB     13:17 14-En berättelse (Live at Stockholm Jazz Festival, 1967)
DR13      -0.51 dB   -17.50 dB      6:05 15-Min heliga (Live at Moderna Museet, Stockholm, 1963)
DR13      -2.72 dB   -19.41 dB      6:48 09-My Foolish Heart (Live at Sveriges Radio Schoolways Concert, Luleå, 1965)
--------------------------------------------------------------------------------

Number of tracks:  15
Official DR value: DR13

Samplerate:        44100 Hz
Channels:          2
Bits per sample:   16
Bitrate:           390 kbps
Codec:             FLAC
================================================================================
No seeders - write personal message to M0p94ok. Any questions - support@pro-jazz.com.
Нет сидеров - пишите в личку M0p94ok. Есть вопросы - support@pro-jazz.com
21:34
124
Нет комментариев. Ваш будет первым!