Поиск

2020 Pedro Tagliani - Guitarra Brasileira {Sonoton Authentic} [24-48]

2020 Pedro Tagliani - Guitarra Brasileira {Sonoton Authentic} [24-48]
Дата издания диска:
24 июля 2020
Битрейт аудио:
lossless
Доп. инфо:

Формат записи/Источник записи: [TR24][OF]
Год издания/переиздания диска: 2020
Издатель (лейбл): Sonoton Authentic Series
Продолжительность: 00:53:42
Наличие сканов в содержимом раздачи: Нет
Контейнер: FLAC (*.flac)
Тип рипа: tracks
Разрядность: 24/48
Количество каналов: 2.0

Источник (релизер): HIGHRESAUDIO

Лог проверки качества
foobar2000 1.4.3 / Dynamic Range Meter 1.1.1
log date: 2020-12-21 06:46:07

--------------------------------------------------------------------------------
Analyzed: Pedro Tagliani / Guitarra Brasileira
--------------------------------------------------------------------------------

DR         Peak         RMS     Duration Track
--------------------------------------------------------------------------------
DR8       -0.48 dB   -10.31 dB      2:18 01-November 9th
DR8       -0.49 dB    -9.20 dB      2:56 02-Samba da Copa
DR7       -0.53 dB    -9.13 dB      3:02 03-Saracoteando
DR7       -0.52 dB    -8.67 dB      2:45 04-Charadeira
DR8       -0.48 dB    -9.24 dB      3:16 05-Arrumadinho
DR8       -0.43 dB    -9.55 dB      2:55 06-Sarabatana
DR8       -0.52 dB    -9.00 dB      2:26 07-Novidade
DR7       -0.44 dB    -8.84 dB      3:24 08-Era uma Vez
DR7       -0.62 dB    -9.68 dB      4:19 09-Saudoso
DR8       -0.23 dB    -9.82 dB      4:10 10-Te Falei
DR8       -0.60 dB   -10.46 dB      3:01 11-Praiana
DR9       -0.32 dB   -11.48 dB      4:17 12-Alice
DR8       -0.44 dB   -10.35 dB      3:00 13-Uueh
DR9       -0.65 dB   -10.98 dB      2:55 14-Samba da Copa (Instrumental Version)
DR8       -0.49 dB    -9.44 dB      3:02 15-Saracoteando (Instrumental Version)
DR9       -0.69 dB   -10.86 dB      2:55 16-Sarabatana (Instrumental Version)
DR8       -0.62 dB   -10.83 dB      3:01 17-Praiana (Instrumental Version)
--------------------------------------------------------------------------------

Number of tracks:  17
Official DR value: DR8

Samplerate:        48000 Hz
Channels:          2
Bits per sample:   24
Bitrate:           1735 kbps
Codec:             FLAC
================================================================================
No seeders - write personal message to M0p94ok. Any questions - support@pro-jazz.com.
Нет сидеров - пишите в личку M0p94ok. Есть вопросы - support@pro-jazz.com
19:21
160
Нет комментариев. Ваш будет первым!